Loading...
Error

Скачать Кузей Гюней / Kuzey Güney (сезон 01) (Мехмет Ада Озтекин) [2011, драма, HDTVRip] [MVO] торрент без регистрации

 
Статистика раздачи
Размер:  59,76 GB   |    Скачан:  175 раз
Сидов:  1  [  0 KB/s  ]  
 
Автор Сообщение

МихаНЕзатор

[] 

Информация о фильме
Название: Кузей Гюней
Оригинальное название: Kuzey Güney
Год выхода: 2011
Жанр: драма
Режиссер: Мехмет Ада Озтекин / Mehmet Ada Öztekin

В ролях: Кыванч Татлытуг, Бугра Гюльсой, Ойкю Караель, Мустафа Авкиран, Семра Динджер, Онур Озтюрк, Зеррин Текиндор, Бадэ Ишчил, Рыза Коджаоглу, Хазар Эргючлю

О фильме: Кузей — бросил школу, отучившись только в начальных классах, в районе известен как шальной, в смысле, вздорный, непутёвый, ничем не занятый и постоянно завидующий своему старшему брату Гюнею.

Гюней — учиться на экономическом факультете, в это же время работает помощником на поле для гольфа, чтобы накопить денег для учёбы в магистратуре. Его возлюбленная Айше особых целей перед собой не ставит, то есть, не амбициозна.

Джемре — дочь местного парикмахера Гюльтен, работает официанткой в кафе, своей жизнью она не очень довольна, но она любит Гюнея. Её мать делает всё, на что способна, чтобы дочь могла стать актрисой.



Страна: Турция
Студия: Ay Yapım, Kanal D
Продолжительность: 40 x ~ 01:46:34
Перевод: Профессиональный (многоголосый закадровый) [ТОО "ПРИМ" (31-й телеканал, Казахстан)]

Файл
Кодек: XviD / MP3
Качество: HDTVRip
Видео: XviD, 704x400 (16:9), 25.000 fps, 1 876 Kbps (0.266 bit/pixel)
Звук:
Аудио #1: MP3, 48.0 KHz, 2 ch, 256 Kbps, CBR (Русский)
Аудио #2: MP3, 48.0 KHz, 2 ch, 192 Kbps, CBR (Турецкий)
Субтитры: Русские (на вырезанные эпизоды)

АНОНСЫ ПОПУЛЯРНЫХ РАЗДАЧ
General
Complete name : /Kuzey.Guney.2011.P.HDTVRip/Kuzey.Guney.2011.(1.sezon.01.seriya.iz.40).HDTVRip.avi
Format : AVI
Format/Info : Audio Video Interleave
File size : 1.78 GiB
Duration : 1h 48mn
Overall bit rate : 2 342 Kbps
Writing application : VirtualDubModRus 1.5.10.2 (build 2542/release)
Writing library : VirtualDubMod build 2542/release

Video
ID : 0
Format : MPEG-4 Visual
Format profile : Simple@L5
Format settings, BVOP : No
Format settings, QPel : No
Format settings, GMC : No warppoints
Format settings, Matrix : Default (H.263)
Codec ID : XVID
Codec ID/Hint : XviD
Duration : 1h 48mn
Bit rate : 1 876 Kbps
Width : 704 pixels
Height : 400 pixels
Display aspect ratio : 16:9
Frame rate : 25.000 fps
Color space : YUV
Chroma subsampling : 4:2:0
Bit depth : 8 bits
Scan type : Progressive
Compression mode : Lossy
Bits/(Pixel*Frame) : 0.266
Stream size : 1.42 GiB (80%)
Writing library : XviD 62

Audio #1
ID : 1
Format : MPEG Audio
Format version : Version 1
Format profile : Layer 3
Codec ID : 55
Codec ID/Hint : MP3
Duration : 1h 48mn
Bit rate mode : Constant
Bit rate : 256 Kbps
Channel(s) : 2 channels
Sampling rate : 48.0 KHz
Compression mode : Lossy
Stream size : 199 MiB (11%)
Alignment : Aligned on interleaves
Interleave, duration : 40 ms (1.00 video frame)
Interleave, preload duration : 504 ms

Audio #2
ID : 2
Format : MPEG Audio
Format version : Version 1
Format profile : Layer 3
Mode : Joint stereo
Mode extension : MS Stereo
Codec ID : 55
Codec ID/Hint : MP3
Duration : 1h 48mn
Bit rate mode : Constant
Bit rate : 192 Kbps
Channel(s) : 2 channels
Sampling rate : 48.0 KHz
Compression mode : Lossy
Stream size : 149 MiB (8%)
Alignment : Aligned on interleaves
Interleave, duration : 24 ms (0.60 video frame)
Interleave, preload duration : 504 ms
Writing library : LAME3.98.4



Скачать Кузей.Гюней.Kuzey.Güney.(сезон.01).(Мехмет.Ада.Озтекин).[2011.драма.HDTVRip].[MVO].torrent без регистрации
Золото ЗОЛОТАЯ РАЗДАЧА! СКАЧАННОЕ НЕ ЗАСЧИТЫВАЕТСЯ! Золото
Дата: Зарегистрирован   [ Тип: внутренний ] Как тут cкачать?
MAGNET ссылка
MAGNET ссылка


Скачать .torrent

82 KB

Статус: проверено DHT
Скачан: торрент - 175 раз, раздача полностью - 36 раз
Размер: 59,76 GB
Оценка:  - (Голосов: 0)
Поблагодарили: 0
Поделиться ссылкой на эту раздачу с друзьями:
В контактеFacebookОдноклассникиTwitterLivejournalМой МирLiveinternet
 

 
Показать сообщения:    


Вы не можете начинать темы
Вы не можете отвечать на сообщения
Вы не можете редактировать свои сообщения
Вы не можете удалять свои сообщения
Вы не можете голосовать в опросах
Вы не можете прикреплять файлы к сообщениям
Вы можете скачивать файлы