Loading...
Error

Скачать Кузей Гюней / Kuzey Güney (02x01-35) (Мехмет Ада Озтекин) [2013, драма, HDTVRip] [VO (turok1990)] торрент без регистрации

 
Статистика раздачи
Размер:  48,48 GB   |    Скачан:  187 раз
Сидов:  1  [  0 KB/s  ]  
 
Автор Сообщение

МихаНЕзатор

[] 

Информация о фильме
Название: Кузей Гюней
Оригинальное название: Kuzey Güney
Год выхода: 2013
Жанр: драма
Режиссер: Мехмет Ада Озтекин / Mehmet Ada Öztekin

В ролях: Кыванч Татлытуг, Бугра Гюльсой, Ойкю Караель, Мустафа Авкиран, Семра Динджер, Онур Озтюрк, Зеррин Текиндор, Бадэ Ишчил, Рыза Коджаоглу, Хазар Эргючлю

О фильме: Кузей — бросил школу, отучившись только в начальных классах, в районе известен как шальной, в смысле, вздорный, непутёвый, ничем не занятый и постоянно завидующий своему старшему брату Гюнею.

Гюней — учиться на экономическом факультете, в это же время работает помощником на поле для гольфа, чтобы накопить денег для учёбы в магистратуре. Его возлюбленная Айше особых целей перед собой не ставит, то есть, не амбициозна.

Джемре — дочь местного парикмахера Гюльтен, работает официанткой в кафе, своей жизнью она не очень довольна, но она любит Гюнея. Её мать делает всё, на что способна, чтобы дочь могла стать актрисой.



Страна: Турция
Студия: Ay Yapım, Kanal D
Продолжительность: ~01:40:00 серия
Перевод: Любительский одноголосый закадровый (Матвей Кенс, turok1990)

Файл
Кодек: XviD / MP3
Качество: HDTVRip
Видео: MPEG4, XviD, 720x400 (16:9), 25.000 fps, 1 675 Kbps (0.233 bit/pixel)
Звук: MP3, 48.0 KHz, 2 ch, 224 Kbps, CBR

АНОНСЫ ПОПУЛЯРНЫХ РАЗДАЧ


Торрент обновлён, добавлена 35-я серия!
General
Complete name : /Kuzey.Guney.2012.2.sezon.L1.HDTVRip/Kuzey.Guney.2.sezon.01.(41).seriya.2012.HDTVRip.avi
Format : AVI
Format/Info : Audio Video Interleave
File size : 1.56 GiB
Duration : 1h 57mn
Overall bit rate : 1 909 Kbps

Video
ID : 0
Format : MPEG-4 Visual
Format profile : Advanced Simple@L5
Format settings, BVOP : 2
Format settings, QPel : No
Format settings, GMC : No warppoints
Format settings, Matrix : Default (H.263)
Codec ID : XVID
Codec ID/Hint : XviD
Duration : 1h 57mn
Bit rate : 1 675 Kbps
Width : 720 pixels
Height : 400 pixels
Display aspect ratio : 16:9
Frame rate : 25.000 fps
Color space : YUV
Chroma subsampling : 4:2:0
Bit depth : 8 bits
Scan type : Progressive
Compression mode : Lossy
Bits/(Pixel*Frame) : 0.233
Stream size : 1.37 GiB (88%)
Writing library : XviD 64

Audio
ID : 1
Format : MPEG Audio
Format version : Version 1
Format profile : Layer 3
Mode : Joint stereo
Mode extension : MS Stereo
Codec ID : 55
Codec ID/Hint : MP3
Duration : 1h 57mn
Bit rate mode : Constant
Bit rate : 224 Kbps
Channel(s) : 2 channels
Sampling rate : 48.0 KHz
Compression mode : Lossy
Stream size : 188 MiB (12%)
Alignment : Aligned on interleaves
Interleave, duration : 40 ms (1.00 video frame)
Interleave, preload duration : 504 ms
Writing library : LAME3.98r
Encoding settings : -m j -V 4 -q 3 -lowpass 19.4 -b 224



Скачать Кузей.Гюней.Kuzey.Güney.(02x01-35).(Мехмет.Ада.Озтекин).[2013.драма.HDTVRip].[VO.(turok1990)].torrent без регистрации
Золото ЗОЛОТАЯ РАЗДАЧА! СКАЧАННОЕ НЕ ЗАСЧИТЫВАЕТСЯ! Золото
Дата: Зарегистрирован   [ Тип: внутренний ] Как тут cкачать?
MAGNET ссылка
MAGNET ссылка


Скачать .torrent

246 KB

Статус: проверено DHT
Скачан: торрент - 187 раз, раздача полностью - 1 раз
Размер: 48,48 GB
Оценка:  - (Голосов: 0)
Поблагодарили: 1
Поделиться ссылкой на эту раздачу с друзьями:
В контактеFacebookОдноклассникиTwitterLivejournalМой МирLiveinternet
 

 

МихаНЕзатор

[] 

Раздача обновлена
 
Показать сообщения:    


Вы не можете начинать темы
Вы не можете отвечать на сообщения
Вы не можете редактировать свои сообщения
Вы не можете удалять свои сообщения
Вы не можете голосовать в опросах
Вы не можете прикреплять файлы к сообщениям
Вы можете скачивать файлы