Loading...
Error

Скачать Сотня / The 100 (сезон 02) (Дин Уайт, Майрзи Алмас, Мэтт Барбер) [2014, Фантастика, драма, WEB-DL 720p] MVO (LostFilm)+Original Eng+Subs (Rus, Eng) торрент без регистрации

 
Статистика раздачи
Размер:  22,67 GB   |    Скачан:  141 раз
Сидов:  1  [  0 KB/s  ]  
 
Автор Сообщение

МихаНЕзатор

[] 

Сотня / The 100


Год выпуска: 2014
Страна: США
Жанр: Фантастика, драма
Продолжительность: ~ 00:42:00
Перевод: Профессиональный многоголосый закадровый (LostFilm)
Режиссёр: Дин Уайт, Майрзи Алмас, Мэтт Барбер

В ролях: Элиза Тейлор, Мари Авгеропулос, Сачин Сахель, Линдси Морган, Женевьев Бюкнер, Рики Уиттл, Ричард Хэрмон, Джарод Джозеф, Челси Рейст, Крис Браунинг, Джош Ссеттуба, Исайя Вашингтон и другие

Описание: События в сериале начинают разворачиваться по прошествии девяносто семи лет после того, как всю цивилизацию уничтожила страшная атомная война. Высоко в космосе на орбите Земли летает большой космический корабль, где находятся те, кто выжил после страшной катастрофы. Именно с этого последнего пристанища людей на Землю отправляют космический челнок, на котором находятся сто малолетних преступников. Приземлившиеся 98 человек сразу делятся на две группировки - "умных и красивых" - пытающихся выжить и быдло. Первых меньшинство и они ломятся искать старый бункер с консервами, пока вторые радуются свежеприобретенной свободе на голодный желудок. Земля оправилась от войны, но не полностью - по ней бродят звери-мутанты, в реках обитают опасные хищники, а в лесах - кое что пострашнее...



Качество: WEB-DL 720p
Контейнер: MKV
Видео: AVC, 1280x718 (16:9), 23.976 fps, ~ 4169 kbps, 0.189 bit/pixel
Аудио 1: Русский, AC3, 48 KHz, 6 channels, 384 kbps
Аудио 2: Английский, AC3, 48 KHz, 6 channels, 384 kbps
Субтитры: Русские, Английские (Softsub SRT)
Звук LostFilm 5.1

АНОНСЫ ПОПУЛЯРНЫХ РАЗДАЧ


Торент обновлён, добавлена 16-я серия!
General
Unique ID : 195824810738014686039183463345910429826 (0x93527C976A97B30DAD8825AC1947B882)
Complete name : /The.100.S02.720p.WEB-DL.Rus.Eng.Subs/The.100.S02E01.720p.WEB-DL.Rus.Eng.Subs.mkv
Format : Matroska
Format version : Version 4 / Version 2
File size : 1.50 GiB
Duration : 42mn 32s
Overall bit rate : 5 038 Kbps
Movie name : The 100 2x01 (2014)
Encoded date : UTC 2014-10-24 19:29:00
Writing application : mkvmerge v6.9.1 ('Blue Panther') 64bit built on Apr 18 2014 18:23:38
Writing library : libebml v1.3.0 + libmatroska v1.4.1
Video
ID : 1
Format : AVC
Format/Info : Advanced Video Codec
Format profile : High@L3.1
Format settings, CABAC : No
Format settings, ReFrames : 2 frames
Codec ID : V_MPEG4/ISO/AVC
Duration : 42mn 32s
Bit rate : 4 169 Kbps
Width : 1 280 pixels
Height : 718 pixels
Display aspect ratio : 16:9
Frame rate mode : Constant
Frame rate : 23.976 fps
Color space : YUV
Chroma subsampling : 4:2:0
Bit depth : 8 bits
Scan type : Progressive
Bits/(Pixel*Frame) : 0.189
Stream size : 1.24 GiB (83%)
Title : The 100 2x01 (2014)
Language : English
Default : Yes
Forced : No
Color primaries : BT.709
Transfer characteristics : BT.709
Matrix coefficients : BT.709
Audio #1
ID : 2
Format : AC-3
Format/Info : Audio Coding 3
Mode extension : CM (complete main)
Format settings, Endianness : Big
Codec ID : A_AC3
Duration : 42mn 32s
Bit rate mode : Constant
Bit rate : 384 Kbps
Channel(s) : 6 channels
Channel positions : Front: L C R, Side: L R, LFE
Sampling rate : 48.0 KHz
Bit depth : 16 bits
Compression mode : Lossy
Stream size : 117 MiB (8%)
Title : LostFilm
Language : Russian
Default : Yes
Forced : No
Audio #2
ID : 3
Format : AC-3
Format/Info : Audio Coding 3
Mode extension : CM (complete main)
Format settings, Endianness : Big
Codec ID : A_AC3
Duration : 42mn 32s
Bit rate mode : Constant
Bit rate : 384 Kbps
Channel(s) : 6 channels
Channel positions : Front: L C R, Side: L R, LFE
Sampling rate : 48.0 KHz
Bit depth : 16 bits
Compression mode : Lossy
Stream size : 117 MiB (8%)
Title : English
Language : English
Default : No
Forced : No
Text
ID : 4
Format : UTF-8
Codec ID : S_TEXT/UTF8
Codec ID/Info : UTF-8 Plain Text
Title : rus-sub
Language : Russian
Default : No
Forced : No
Text
ID : 5
Format : UTF-8
Codec ID : S_TEXT/UTF8
Codec ID/Info : UTF-8 Plain Text
Title : eng-sub
Language : English
Default : No
Forced : No

Сезон 2, Серии 1-16
01: The 48 / 48
02: Inclement Weather / Суровая Вэзер
03: Reapercussions / Последствия
04: Many Happy Returns / Долгих лет жизни
05: Human Trials / Эксперименты над людьми
06: Fog of War / Туман войны
07: Long Into an Abyss / В самую бездну
08: Spacewalker / Космический странник
09: Remember Me / Помни меня
10: Survival of the Fittest / Выживает сильнейший
11: Coup de Grâce / Смертельный удар
12: Rubicon / Рубикон
13: Resurrection / Воскрешение
14: Bodyguard of Lies / Защитник лжи
15: Blood Must Have Blood: Part 1
16: Blood Must Have Blood: Part 2
Перевод и озвучивание: LostFilm
РЕЛИЗ
HDCLUB,

[b]Работа со звуком Lostfilm:
РУССКИЕ СУБТИТРЫ
Перевод: Notabenoid [KeRoB] (1), alexmild и сайт cotranslate (2), сайт cotranslate (3,5,6,7,8,9), alexmild (4)
Синхронизация русских субтитров: alexmild (1,5,6,7,8,9), alexmild [тайминг по английским 1:1] (2,3,4)
Коррекция русских субтитров: alexmild"]
Внимание! Раздача ведётся путём добавления новых серий; при каждом добавлении создаётся новый торрент. Чтобы начать докачку новой серии, пользователям необходимо сделать следующее:
1) остановить скачивание,
2) удалить старый торрент у себя из клиента (старые серии удалять не надо),
3) скачать новый торрент и запустить его у себя в клиенте вместо старого, при этом указать клиенту путь в старую папку куда и должно происходить скачивание новых серий.
Ваш клиент при этом должен произвести хеширование (проверку) старой папки (если не производит сам - помогите ему сделать это), и будет докачивать только те серии которых у вас ещё нет. Старые серии при этом не удаляются, а продолжают раздаваться!
Eсли вы уже удалили старые серии, то предотвратить повторную закачку старых серий можно, отжав галочку в соответствующих местах при запуске нового торрента. По возможности, желательно не удалять старые серии как можно дольше чтобы релизёр не столько продолжал раздавать старые серии, а смог сконцентрироваться на новых.
» «



Скачать Сотня.The.100.(сезон.02).(Дин.Уайт.Майрзи.Алмас.Мэтт.Барбер).[2014.Фантастика.драма.WEB-DL.720p].MVO.(LostFilm)+Original.Eng+Subs.(Rus.Eng).torrent без регистрации
Золото ЗОЛОТАЯ РАЗДАЧА! СКАЧАННОЕ НЕ ЗАСЧИТЫВАЕТСЯ! Золото
Дата: Зарегистрирован   [ Тип: внутренний ] Как тут cкачать?
MAGNET ссылка
MAGNET ссылка


Скачать .torrent

116 KB

Статус: проверено DHT
Скачан: торрент - 141 раз, раздача полностью - 33 раз
Размер: 22,67 GB
Оценка:  - (Голосов: 0)
Поблагодарили: 1
Поделиться ссылкой на эту раздачу с друзьями:
В контактеFacebookОдноклассникиTwitterLivejournalМой МирLiveinternet
 

 
Показать сообщения:    


Вы не можете начинать темы
Вы не можете отвечать на сообщения
Вы не можете редактировать свои сообщения
Вы не можете удалять свои сообщения
Вы не можете голосовать в опросах
Вы не можете прикреплять файлы к сообщениям
Вы можете скачивать файлы