Loading...
Error

Скачать Сотня / The 100 (сезон 02) (Дин Уайт) [2014-2015, фантастика, драма, триллер, BDRip] 2x[MVO (AlexFilm, LostFilm)]+[Eng] торрент без регистрации

 
Статистика раздачи
Размер:  14,99 GB   |    Скачан:  167 раз
Сидов:  9  [  0 KB/s  ]   Личеров:  4  [  0 KB/s  ]  
 
Автор Сообщение

МихаНЕзатор

[] 

Информация о фильме
Название: Сотня
Оригинальное название: The 100
Год выхода: 2014-2015
Жанр: фантастика, драма, детектив, боевик
Режиссер: Дин Уайт, Мэтт Барбер, Джон Беринг, Милан Чейлов

В ролях: Элиза Тейлор-Коттер, Мари Авгеропулос, Сачин Сахель, Линдси Морган, Женевьев Бюкнер, Ричард Хэрмон, Джарод Джозеф, Челси Рейст, Крис Браунинг, Джош Ссеттуба

О фильме: События в сериале начинают разворачиваться по прошествии девяносто семи лет после того, как всю цивилизацию уничтожила страшная атомная война.
Высоко в космосе на орбите Земли летает большой космический корабль, где находятся те, кто выжил после страшной катастрофы. Именно с этого последнего пристанища людей на Землю отправляют космический челнок, на котором находятся сто малолетних преступников…

Релиз от:

Страна: США
Студия: The CW
Продолжительность: 00:42:30
Язык: Русский, Английский
Перевод: Профессиональный (многоголосый, закадровый)

Файл
Формат: AVI
Кодек: XviD
Качество: BDRip
Видео: 720x400, 23.976 fps, 2000 kbps
Звук: Аудио кодек: AC3
Аудио Rus: 48 kHz, AC3, 6 ch, 384 kbps - Многоголосый закадровый, AlexFilm
Аудио Rus: 48 kHz, AC3, 6 ch, 384 kbps - Многоголосый закадровый, LostFilm
Аудио Eng: 48 kHz, AC3, 6 ch, 384 kbps - Original

АНОНСЫ ПОПУЛЯРНЫХ РАЗДАЧ


Торрент обновлён, улучшен видеоряд, добавлен перевод!
• Рип видео: - lipovan
• Работа со всеми озвучками k-marat-s
• Спасибо студии AlexFilm за сотрудничество и предоставленные голоса.

01. Сорок восемь / The 48
02. Суровая Вэзер / Inclement Weather
03. Последствия / Reapercussions
04. Долгих лет жизни / Many Happy Returns
05. Эксперименты над людьми / Human Trials
06. Туман войны / Fog of War
07. В самую бездну / Long Into an Abyss
08. Космический странник / Spacewalker
09. Помни меня / Remember Me
10. Выживает сильнейший / Survival of the Fittest
11. Смертельный удар / Coup de Grâce
12. Рубикон / Rubicon
13. Воскрешение / Resurrection
14. Защитник лжи / Bodyguard of Lies
15. Кровь за кровь. Часть 1 / Blood Must Have Blood: Part 1
16. Кровь за кровь. Часть 2 / Blood Must Have Blood: Part 2
General
Format : AVI
Format/Info : Audio Video Interleave
File size : 964 MiB
Duration : 42mn 29s
Overall bit rate : 3 171 Kbps
Writing application : VirtualDubMod 1.5.10.3 (build 2550/release)
Writing library : VirtualDubMod build 2550/release

Video
ID : 0
Format : MPEG-4 Visual
Format profile : Advanced Simple@L5
Format settings, BVOP : 1
Format settings, QPel : No
Format settings, GMC : No warppoints
Format settings, Matrix : Default (MPEG)
Codec ID : XVID
Codec ID/Hint : XviD
Duration : 42mn 29s
Bit rate : 2 001 Kbps
Width : 720 pixels
Height : 400 pixels
Display aspect ratio : 16:9
Frame rate : 23.976 fps
Color space : YUV
Chroma subsampling : 4:2:0
Bit depth : 8 bits
Scan type : Progressive
Compression mode : Lossy
Bits/(Pixel*Frame) : 0.290
Stream size : 608 MiB (63%)
Writing library : XviD 65

Audio #1
ID : 1
Format : AC-3
Format/Info : Audio Coding 3
Mode extension : CM (complete main)
Format settings, Endianness : Big
Codec ID : 2000
Duration : 42mn 29s
Bit rate mode : Constant
Bit rate : 384 Kbps
Channel(s) : 6 channels
Channel positions : Front: L C R, Side: L R, LFE
Sampling rate : 48.0 KHz
Bit depth : 16 bits
Compression mode : Lossy
Stream size : 117 MiB (12%)
Alignment : Split accross interleaves
Interleave, duration : 42 ms (1.00 video frame)
Interleave, preload duration : 500 ms

Audio #2
ID : 2
Format : AC-3
Format/Info : Audio Coding 3
Mode extension : CM (complete main)
Format settings, Endianness : Big
Codec ID : 2000
Duration : 42mn 29s
Bit rate mode : Constant
Bit rate : 384 Kbps
Channel(s) : 6 channels
Channel positions : Front: L C R, Side: L R, LFE
Sampling rate : 48.0 KHz
Bit depth : 16 bits
Compression mode : Lossy
Stream size : 117 MiB (12%)
Alignment : Split accross interleaves
Interleave, duration : 42 ms (1.00 video frame)
Interleave, preload duration : 500 ms

Audio #3
ID : 3
Format : AC-3
Format/Info : Audio Coding 3
Mode extension : CM (complete main)
Format settings, Endianness : Big
Codec ID : 2000
Duration : 42mn 29s
Bit rate mode : Constant
Bit rate : 384 Kbps
Channel(s) : 6 channels
Channel positions : Front: L C R, Side: L R, LFE
Sampling rate : 48.0 KHz
Bit depth : 16 bits
Compression mode : Lossy
Stream size : 117 MiB (12%)
Alignment : Split accross interleaves
Interleave, duration : 42 ms (1.00 video frame)
Interleave, preload duration : 500 ms



Скачать Сотня.The.100.(сезон.02).(Дин.Уайт).[2014-2015.фантастика.драма.триллер.BDRip].2x[MVO.(AlexFilm.LostFilm)]+[Eng].torrent без регистрации
Золото ЗОЛОТАЯ РАЗДАЧА! СКАЧАННОЕ НЕ ЗАСЧИТЫВАЕТСЯ! Золото
Дата: Зарегистрирован   [ Тип: внешний ] Как тут cкачать?
MAGNET ссылка
MAGNET ссылка


Скачать .torrent

77 KB

Статус: проверено DHT
Скачан: торрент - 167 раз, раздача полностью - 80 раз
Размер: 14,99 GB
Оценка:  5 (Голосов: 1)
Поблагодарили: 4
Поделиться ссылкой на эту раздачу с друзьями:
В контактеFacebookОдноклассникиTwitterLivejournalМой МирLiveinternet
 

 
Показать сообщения:    


Вы не можете начинать темы
Вы не можете отвечать на сообщения
Вы не можете редактировать свои сообщения
Вы не можете удалять свои сообщения
Вы не можете голосовать в опросах
Вы не можете прикреплять файлы к сообщениям
Вы можете скачивать файлы