Loading...
Error

Скачать Сотня / The 100 (сезон 02) (Дин Уайт и др.) [2014, фантастика, драма, WEB-DL 1080p] MVO (LostFilm, AlexFilm, BaibaKo)+Original Eng+Subs (Rus, Eng) торрент без регистрации

 
Статистика раздачи
Размер:  31,46 GB   |    Скачан:  143 раза
Сидов:  1  [  0 KB/s  ]  
 
Автор Сообщение

МихаНЕзатор

[] 

Сотня / The 100


Год выпуска: 2014
Страна: США
Жанр: Фантастика, драма
Продолжительность: ~ 00:42:00
Перевод 1: Профессиональный многоголосый закадровый (LostFilm)
Перевод 2: Профессиональный многоголосый закадровый (AlexFilm)
Перевод 3: Профессиональный многоголосый закадровый (BaibaKo)
Режиссёр: Дин Уайт, Майрзи Алмас, Мэтт Барбер

В ролях: Элиза Тейлор, Мари Авгеропулос, Сачин Сахель, Линдси Морган, Женевьев Бюкнер, Рики Уиттл, Ричард Хэрмон, Джарод Джозеф, Челси Рейст, Крис Браунинг, Джош Ссеттуба, Исайя Вашингтон и другие

Описание: События в сериале начинают разворачиваться по прошествии девяносто семи лет после того, как всю цивилизацию уничтожила страшная атомная война. Высоко в космосе на орбите Земли летает большой космический корабль, где находятся те, кто выжил после страшной катастрофы. Именно с этого последнего пристанища людей на Землю отправляют космический челнок, на котором находятся сто малолетних преступников. Приземлившиеся 98 человек сразу делятся на две группировки - "умных и красивых" - пытающихся выжить и быдло. Первых меньшинство и они ломятся искать старый бункер с консервами, пока вторые радуются свежеприобретенной свободе на голодный желудок. Земля оправилась от войны, но не полностью - по ней бродят звери-мутанты, в реках обитают опасные хищники, а в лесах - кое что пострашнее...



Торрент обновлён, добавлена 16-я серия!

Качество: WEB-DL 1080p
Контейнер: MKV
Видео: AVC, 1916x1076 (16:9), 23.976 fps, ~ 4871 kbps, 0.099 bit/pixel
Аудио 1: Русский, AC3, 48 KHz, 6 channels, 384 kbps (LostFilm)
Аудио 2: Русский, AC3, 48 KHz, 6 channels, 384 kbps (AlexFilm)
Аудио 3: Русский, AC3, 48 KHz, 6 channels, 384 kbps (BaibaKo)
Аудио 4: Английский, AC3, 48 KHz, 6 channels, 384 kbps (Original)
Субтитры: Русские, Английские (Softsub SRT)

АНОНСЫ ПОПУЛЯРНЫХ РАЗДАЧ


28.01.2015 г. торрент обновлён, добавлена 9-я серия!
General
Unique ID : 139800792784536903624954348443307300024 (0x692CA73F256020A0F2F1876C356754B8)
Complete name : /The.100.S02.1080p.WEB-DL.3xRus.Eng.Subs/The.100.S02E01.1080p.WEB-DL.3xRus.Eng.Subs.mkv
Format : Matroska
Format version : Version 4 / Version 2
File size : 1.94 GiB
Duration : 42mn 32s
Overall bit rate : 6 537 Kbps
Movie name : The 100 2x01 (2014)
Encoded date : UTC 2014-12-13 19:51:33
Writing application : mkvmerge v6.9.1 ('Blue Panther') 64bit built on Apr 21 2014 16:21:33
Writing library : libebml v1.3.0 + libmatroska v1.4.1
Video
ID : 1
Format : AVC
Format/Info : Advanced Video Codec
Format profile : High@L4.0
Format settings, CABAC : Yes
Format settings, ReFrames : 4 frames
Codec ID : V_MPEG4/ISO/AVC
Duration : 42mn 32s
Bit rate : 4 871 Kbps
Width : 1 916 pixels
Height : 1 076 pixels
Display aspect ratio : 16:9
Frame rate mode : Constant
Frame rate : 23.976 fps
Color space : YUV
Chroma subsampling : 4:2:0
Bit depth : 8 bits
Scan type : Progressive
Bits/(Pixel*Frame) : 0.099
Stream size : 1.45 GiB (75%)
Title : The 100 2x01 (2014)
Language : English
Default : Yes
Forced : No
Color primaries : BT.709
Transfer characteristics : BT.709
Matrix coefficients : BT.709
Audio #1
ID : 2
Format : AC-3
Format/Info : Audio Coding 3
Mode extension : CM (complete main)
Format settings, Endianness : Big
Codec ID : A_AC3
Duration : 42mn 32s
Bit rate mode : Constant
Bit rate : 384 Kbps
Channel(s) : 6 channels
Channel positions : Front: L C R, Side: L R, LFE
Sampling rate : 48.0 KHz
Bit depth : 16 bits
Compression mode : Lossy
Stream size : 117 MiB (6%)
Title : LostFilm
Language : Russian
Default : Yes
Forced : No
Audio #2
ID : 3
Format : AC-3
Format/Info : Audio Coding 3
Mode extension : CM (complete main)
Format settings, Endianness : Big
Codec ID : A_AC3
Duration : 42mn 32s
Bit rate mode : Constant
Bit rate : 384 Kbps
Channel(s) : 6 channels
Channel positions : Front: L C R, Side: L R, LFE
Sampling rate : 48.0 KHz
Bit depth : 16 bits
Compression mode : Lossy
Stream size : 117 MiB (6%)
Title : AlexFilm
Language : Russian
Default : No
Forced : No
Audio #3
ID : 4
Format : AC-3
Format/Info : Audio Coding 3
Mode extension : CM (complete main)
Format settings, Endianness : Big
Codec ID : A_AC3
Duration : 42mn 32s
Bit rate mode : Constant
Bit rate : 384 Kbps
Channel(s) : 6 channels
Channel positions : Front: L C R, Side: L R, LFE
Sampling rate : 48.0 KHz
Bit depth : 16 bits
Compression mode : Lossy
Stream size : 117 MiB (6%)
Title : BaibaKo
Language : Russian
Default : No
Forced : No
Audio #4
ID : 5
Format : AC-3
Format/Info : Audio Coding 3
Mode extension : CM (complete main)
Format settings, Endianness : Big
Codec ID : A_AC3
Duration : 42mn 32s
Bit rate mode : Constant
Bit rate : 384 Kbps
Channel(s) : 6 channels
Channel positions : Front: L C R, Side: L R, LFE
Sampling rate : 48.0 KHz
Bit depth : 16 bits
Compression mode : Lossy
Stream size : 117 MiB (6%)
Title : English
Language : English
Default : No
Forced : No
Text #1
ID : 6
Format : UTF-8
Codec ID : S_TEXT/UTF8
Codec ID/Info : UTF-8 Plain Text
Title : rus-sub
Language : Russian
Default : No
Forced : No
Text #2
ID : 7
Format : UTF-8
Codec ID : S_TEXT/UTF8
Codec ID/Info : UTF-8 Plain Text
Title : eng-sub
Language : English
Default : No
Forced : No
Сезон 2, Серии 1-13
01: The 48 / 48
02: Inclement Weather / Суровая Вэзер
03: Суровая Хэзер / Суровая Вэзер
04: Many Happy Returns / Долгих лет жизни
05: Human Trials / Эксперименты над людьми
06: Fog of War / Туман войны
07: Long Into an Abyss / В самую бездну
08: Spacewalker / Космический странник
09:
10:
11:
12:
13:
14:
15:
16:
Аудиодорожки: LostFilm и AlexFilm – из релиза на Casstudio; BaibaKo – из релиза BaibaKo
Озвучивание: LostFilm, AlexFilm, BaibaKo
Перевод LostFilm: нет данных
Перевод AlexFilm: Константин Кривоногов
Перевод BaibaKo: Татьяна Saavick
Роли озвучивали LostFilm: нет данных
Роли озвучивали AlexFilm: Татьяна Манетина, Ирина Воронова, Михаил Суслов, Александр Дасевич, Михаил Шорыгин
Роли озвучивали BaibaKo: Ольга Мотрич, Anna_Smile, Олекса Мельник и Александр Фурман
Работа со звуком LostFilm:
Работа со звуком AlexFilm: C.Мартынов, М.Шорыгин, (6,7,8)
Работа со звуком BaibaKo: Виталий Мартыняк
Русские субтитры: notabenoid [KeroB] (1), alexmild и сайт Cotranslate (2), сайт Cotranslate (3,5,6,7,8,9), alexmild (4)
Синхронизация русских субтитров: alexmild (1,5,6,7,8,9), alexmild [тайминг по английским 1:1] (2,3,4)
Коррекция русских субтитров: alexmild
Подготовка релиза: alexmild
Внимание! Раздача ведётся путём добавления новых серий; при каждом добавлении создаётся новый торрент. Чтобы начать докачку новой серии, пользователям необходимо сделать следующее:
1) остановить скачивание,
2) удалить старый торрент у себя из клиента (старые серии удалять не надо),
3) скачать новый торрент и запустить его у себя в клиенте вместо старого, при этом указать клиенту путь в старую папку куда и должно происходить скачивание новых серий.
Ваш клиент при этом должен произвести хеширование (проверку) старой папки (если не производит сам - помогите ему сделать это), и будет докачивать только те серии которых у вас ещё нет. Старые серии при этом не удаляются, а продолжают раздаваться!
Eсли вы уже удалили старые серии, то предотвратить повторную закачку старых серий можно, отжав галочку в соответствующих местах при запуске нового торрента. По возможности, желательно не удалять старые серии как можно дольше чтобы релизёр не столько продолжал раздавать старые серии, а смог сконцентрироваться на новых.
» «



Скачать Сотня.The.100.(сезон.02).(Дин.Уайт.и.др.).[2014.фантастика.драма.WEB-DL.1080p].MVO.(LostFilm.AlexFilm.BaibaKo)+Original.Eng+Subs.(Rus.Eng).torrent без регистрации
Золото ЗОЛОТАЯ РАЗДАЧА! СКАЧАННОЕ НЕ ЗАСЧИТЫВАЕТСЯ! Золото
Дата: Зарегистрирован   [ Тип: внутренний ] Как тут cкачать?
MAGNET ссылка
MAGNET ссылка


Скачать .torrent

160 KB

Статус: проверено DHT
Скачан: торрент - 143 раз, раздача полностью - 14 раз
Размер: 31,46 GB
Оценка:  - (Голосов: 0)
Поблагодарили: 1
Поделиться ссылкой на эту раздачу с друзьями:
В контактеFacebookОдноклассникиTwitterLivejournalМой МирLiveinternet
 

 
Показать сообщения:    


Вы не можете начинать темы
Вы не можете отвечать на сообщения
Вы не можете редактировать свои сообщения
Вы не можете удалять свои сообщения
Вы не можете голосовать в опросах
Вы не можете прикреплять файлы к сообщениям
Вы можете скачивать файлы