Loading...
Error

Скачать Лучшие из лучших 3 / Best of the Best 3: No Turning Back (Филлип Ри) [1995, боевик, триллер, драма, криминал, HDRip-AVC] [MVO]+[DVO]+[AVO]x2+[Sub]x2 торрент без регистрации

 
Статистика раздачи
Размер:  2,18 GB   |    Скачан:  108 раз
Сидов:  1  [  0 KB/s  ]  
 
Автор Сообщение

Marsianka

[] 

Информация о фильме
✦Название: Лучшие из лучших 3
✦Оригинальное название: Best of the Best 3: No Turning Back
✦Год выхода: 1995
✦Жанр: боевик, триллер, драма, криминал
✦Страна: США / The Movie Group Inc.
✦Продолжительность: 01:30:46
✦Перевод: Профессиональный многоголосый, профессиональный двухголосый, авторский

Режиссер: Филлип Ри

В ролях: Филлип Ри, Кристофер МакДональд, Джина Гершон, Марк Ролстон, Питер Симмонс, Кристина Лоусон, Ди Уоллес, Майкл Бэйли Смит, Джастин Брэнтли, Андра Вард


Тихая «заштатная» Индиана. 17-летний Оуэн возвращается домой после бурных, но безуспешных поисков работы. Его мать требует от сына денег, не желая вдаваться в запутанные перипетии его судьбы.
Но унизительная семейная жизнь для него хуже удавки. Он бежит от нее навстречу опасным приключениям, непредсказуемым ловушкам и попадает в неонацистский лагерь. А здесь без приемов каратэ любого ждет смерть.




Файл
✦Качество: HDRip-AVC
✦Видео: MPEG-4 AVC, 2671 Кбит/с, 1024x576, 23.976 кадр/с
✦Аудио #1: Русский (AC3, 2 ch, 192 Кбит/с) / Профессиональный многоголосый (R5 / Вест Мультимедиа)
✦Аудио #2: Русский (AC3, 2 ch, 192 Кбит/с) / Профессиональный двухголосый (ТНТ / ДТВ-Перец)
✦Аудио #3: Русский (AC3, 2 ch, 192 Кбит/с) / Авторский одноголосый (Л. Володарский)
✦Аудио #4: Русский (AC3, 2 ch, 192 Кбит/с) / Авторский одноголосый (А. Кашкин)
✦Субтитры: Русские, английские
Format : Matroska
Format version : Version 4 / Version 2
File size : 2.18 GiB
Duration : 1h 30mn
Overall bit rate : 3 440 Kbps
Encoded date : UTC 2014-07-19 08:20:36
Writing application : mkvmerge v6.9.1 ('Blue Panther') 64bit built on Apr 18 2014 18:23:38
Writing library : libebml v1.3.0 + libmatroska v1.4.1
Attachment : Yes

Video
ID : 1
Format : AVC
Format/Info : Advanced Video Codec
Format profile : High@L4.1
Format settings, CABAC : Yes
Format settings, ReFrames : 5 frames
Codec ID : V_MPEG4/ISO/AVC
Duration : 1h 30mn
Bit rate : 2 671 Kbps
Width : 1 024 pixels
Height : 576 pixels
Display aspect ratio : 16:9
Frame rate mode : Constant
Frame rate : 23.976 fps
Color space : YUV
Chroma subsampling : 4:2:0
Bit depth : 8 bits
Scan type : Progressive
Bits/(Pixel*Frame) : 0.189
Stream size : 1.65 GiB (76%)
Writing library : x264 core 142 r2431 ac76440
Encoding settings : cabac=1 / ref=5 / deblock=1:0:0 / analyse=0x3:0x133 / me=umh / subme=9 / psy=1 / psy_rd=1.00:0.05 / mixed_ref=1 / me_range=24 / chroma_me=1 / trellis=2 / 8x8dct=1 / cqm=0 / deadzone=21,11 / fast_pskip=1 / chroma_qp_offset=-3 / threads=12 / lookahead_threads=1 / sliced_threads=0 / nr=0 / decimate=1 / interlaced=0 / bluray_compat=0 / constrained_intra=0 / bframes=5 / b_pyramid=2 / b_adapt=2 / b_bias=0 / direct=3 / weightb=1 / open_gop=0 / weightp=2 / keyint=240 / keyint_min=23 / scenecut=40 / intra_refresh=0 / rc=2pass / mbtree=0 / bitrate=2671 / ratetol=1.0 / qcomp=0.60 / qpmin=0 / qpmax=69 / qpstep=4 / cplxblur=20.0 / qblur=0.5 / ip_ratio=1.40 / pb_ratio=1.30 / aq=1:1.00
Language : English
Default : Yes
Forced : No

Audio #1
ID : 2
Format : AC-3
Format/Info : Audio Coding 3
Mode extension : CM (complete main)
Format settings, Endianness : Big
Codec ID : A_AC3
Duration : 1h 30mn
Bit rate mode : Constant
Bit rate : 192 Kbps
Channel(s) : 2 channels
Channel positions : Front: L R
Sampling rate : 48.0 KHz
Bit depth : 16 bits
Compression mode : Lossy
Stream size : 125 MiB (6%)
Title : Профессиональный многоголосый (R5 / Вест Мультимедиа)
Language : Russian
Default : Yes
Forced : No

Audio #2
ID : 3
Format : AC-3
Format/Info : Audio Coding 3
Mode extension : CM (complete main)
Format settings, Endianness : Big
Codec ID : A_AC3
Duration : 1h 30mn
Bit rate mode : Constant
Bit rate : 192 Kbps
Channel(s) : 2 channels
Channel positions : Front: L R
Sampling rate : 48.0 KHz
Bit depth : 16 bits
Compression mode : Lossy
Stream size : 125 MiB (6%)
Title : Профессиональный двухголосый (ТНТ / ДТВ-Перец)
Language : Russian
Default : No
Forced : No

Audio #3
ID : 4
Format : AC-3
Format/Info : Audio Coding 3
Mode extension : CM (complete main)
Format settings, Endianness : Big
Codec ID : A_AC3
Duration : 1h 30mn
Bit rate mode : Constant
Bit rate : 192 Kbps
Channel(s) : 2 channels
Channel positions : Front: L R
Sampling rate : 48.0 KHz
Bit depth : 16 bits
Compression mode : Lossy
Stream size : 125 MiB (6%)
Title : Авторский одноголосый (Л. Володарский)
Language : Russian
Default : No
Forced : No

Audio #4
ID : 5
Format : AC-3
Format/Info : Audio Coding 3
Mode extension : CM (complete main)
Format settings, Endianness : Big
Codec ID : A_AC3
Duration : 1h 30mn
Bit rate mode : Constant
Bit rate : 192 Kbps
Channel(s) : 2 channels
Channel positions : Front: L R
Sampling rate : 48.0 KHz
Bit depth : 16 bits
Compression mode : Lossy
Stream size : 125 MiB (6%)
Title : Авторский одноголосый (А. Кашкин)
Language : Russian
Default : No
Forced : No

Text #1
ID : 6
Format : UTF-8
Codec ID : S_TEXT/UTF8
Codec ID/Info : UTF-8 Plain Text
Language : Russian
Default : No
Forced : No

Text #2
ID : 7
Format : UTF-8
Codec ID : S_TEXT/UTF8
Codec ID/Info : UTF-8 Plain Text
Language : English
Default : No
Forced : No

Menu
00:00:00.000 : :Chapter 01
00:05:57.857 : :Chapter 02
00:10:43.643 : :Chapter 03
00:17:18.662 : :Chapter 04
00:25:04.544 : :Chapter 05
00:35:03.142 : :Chapter 06
00:44:39.259 : :Chapter 07
00:54:11.248 : :Chapter 08
01:00:02.599 : :Chapter 09
01:05:51.656 : :Chapter 10
01:16:11.275 : :Chapter 11
01:25:06.559 : :Chapter 12



Скачать Лучшие.из.лучших.3.Best.of.the.Best.3.No.Turning.Back.(Филлип.Ри).[1995.боевик.триллер.драма.криминал.HDRip-AVC].[MVO]+[DVO]+[AVO]x2+[Sub]x2.torrent без регистрации
Золото ЗОЛОТАЯ РАЗДАЧА! СКАЧАННОЕ НЕ ЗАСЧИТЫВАЕТСЯ! Золото
Дата: Зарегистрирован   [ Тип: внутренний ] Как тут cкачать?
MAGNET ссылка
MAGNET ссылка


Скачать .torrent

11 KB

Статус: проверено DHT
Скачан: торрент - 108 раз, раздача полностью - 5 раз
Размер: 2,18 GB
Оценка:  - (Голосов: 0)
Поблагодарили: 1
Поделиться ссылкой на эту раздачу с друзьями:
В контактеFacebookОдноклассникиTwitterLivejournalМой МирLiveinternet
 

 
Показать сообщения:    


Вы не можете начинать темы
Вы не можете отвечать на сообщения
Вы не можете редактировать свои сообщения
Вы не можете удалять свои сообщения
Вы не можете голосовать в опросах
Вы не можете прикреплять файлы к сообщениям
Вы можете скачивать файлы