Loading...
Error

Скачать Ширли-Мырли (Владимир Меньшов) [1995, комедия фарс, DVDRip-AVC] торрент без регистрации

 
Статистика раздачи
Размер:  2,53 GB   |    Скачан:  119 раз
Сидов:  1  [  0 KB/s  ]  
 
Автор Сообщение

МихаНЕзатор

[] 

Ширли-Мырли
(1995) DVDRip-AVC


Информация о фильме
Оригинальное название: Ширли-Мырли
Год выхода: 1995
Жанр: комедия фарс
Режиссер: Владимир Меньшов

В ролях: Валерий Гаркалин, Вера Алентова, Инна Чурикова, Игорь Угольников, Леонид Куравлев, Любовь Полищук

О фильме: Невероятная история о братьях - близнецах, никогда прежде не слыхавших друг о друге. Один из них, в младенчестве подброшенный в табор стал цыганским бароном; другой рос в детском доме - и теперь он еврей - музыкант с мировым именем; третьего воспитывала родная тетя, и домашнее воспитание принесло свои плоды: он стал авторитетнейшим в СНГ вором и аферистом. Именно он, благодаря своим талантам, обводит вокруг пальца главу мафии и похищает фантастический алмаз 'Спаситель России'. Стоимость найденного в Сибири драгоценного камня такова, что вся страна сможет 3 года отдыхать на Канарских островах. Его размерами потрясено мировое сообщество. Английская королева рыдает, закрывшись в спальне. Южно - африканские шахтеры поклялись не выходить на поверхность, пока не отыщут более крупный самородок... А в России сенсация следует за сенсацией! Находка века породила ограбление века! Мир, затаив дыхание, следит за стремительной сменой событий...



Автор рипа: Zarraza

Выпущено: Россия
Продолжительность: 02:15:14
Субтитры: нет

Файл:
Формат: MKV
Качество: DVDRip-AVC (источник: namefortorrents / DVD-9 / 576p)
Видео: 704x520 (4:3), 25 fps, H264 ~2100 kbps avg
Аудио 1: 48 kHz, AC3 Dolby Digital, 3/2 (L,C,R,l,r) + LFE ch, ~384.00 kbps avg
Аудио 2: 48 kHz, AC3 Dolby Digital, 1/0 (C), ~192.00 kbps avg (Отдельно)

АНОНСЫ ПОПУЛЯРНЫХ РАЗДАЧ
Формат : Matroska
Версия формата : Version 2
Размер файла : 2,35 Гбайт
Продолжительность : 2 ч. 15 м.
Общий поток : 2487 Кбит/сек
Дата кодирования : UTC 2011-10-09 19:20:17
Программа кодирования : mkvmerge v3.4.0 ('Rapunzel') сборка от May 15 2010 09:38:20
Библиотека кодирования : libebml v0.8.0 + libmatroska v0.9.0

Видео
Идентификатор : 1
Формат : AVC
Формат/Информация : Advanced Video Codec
Профиль формата : High@L3.1
Параметр CABAC формата : Да
Параметр ReFrames формата : 6 кадров
Идентификатор кодека : V_MPEG4/ISO/AVC
Продолжительность : 2 ч. 15 м.
Битрейт : 2100 Кбит/сек
Ширина : 704 пикселя
Высота : 520 пикселей
Соотношение сторон : 4:3
Частота кадров : 25,000 кадров/сек
Цветовое пространство : YUV
Субдискретизация насыщенности : 4:2:0
Битовая глубина : 8 бит
Тип развёртки : Прогрессивная
Бит/(Пиксели*Кадры) : 0.229
Размер потока : 1,94 Гбайт (83%)
Библиотека кодирования : x264 core 75 r1251kMod e553a4c
Настройки программы : cabac=1 / ref=6 / deblock=1:-1:-1 / analyse=0x3:0x133 / me=umh / subme=7 / psy=1 / psy_rd=1.0:0.0 / mixed_ref=1 / me_range=16 / chroma_me=1 / trellis=2 / 8x8dct=1 / cqm=0 / deadzone=21,11 / chroma_qp_offset=-2 / threads=12 / nr=0 / decimate=1 / mbaff=0 / bframes=3 / b_pyramid=0 / b_adapt=2 / b_bias=0 / direct=1 / wpredb=1 / keyint=250 / keyint_min=25 / scenecut=40 / rc_lookahead=40 / rc=abr / mbtree=1 / bitrate=2100 / ratetol=1.0 / qcomp=0.60 / qpmin=10 / qpmax=51 / qpstep=4 / ip_ratio=1.40 / aq=1:1.00

Аудио
Идентификатор : 2
Формат : AC-3
Формат/Информация : Audio Coding 3
Расширение режима : CM (complete main)
Идентификатор кодека : A_AC3
Продолжительность : 2 ч. 15 м.
Вид битрейта : Постоянный
Битрейт : 384 Кбит/сек
Каналы : 6 каналов
Расположение каналов : Front: L C R, Side: L R, LFE
Частота : 48,0 КГц
Битовая глубина : 16 бит
Метод сжатия : С потерями
Размер потока : 371 Мбайт (15%)
Заголовок : AC3 5.1 - 384 kbps
Язык : Russian



Скачать Ширли-Мырли.(Владимир.Меньшов).[1995.комедия.фарс.DVDRip-AVC].torrent без регистрации
Золото ЗОЛОТАЯ РАЗДАЧА! СКАЧАННОЕ НЕ ЗАСЧИТЫВАЕТСЯ! Золото
Дата: Зарегистрирован   [ Тип: внутренний ] Как тут cкачать?
MAGNET ссылка
MAGNET ссылка


Скачать .torrent

13 KB

Статус: проверено DHT
Скачан: торрент - 119 раз, раздача полностью - 105 раз
Размер: 2,53 GB
Оценка:  5 (Голосов: 1)
Поблагодарили: 2
Поделиться ссылкой на эту раздачу с друзьями:
В контактеFacebookОдноклассникиTwitterLivejournalМой МирLiveinternet
 

 
Показать сообщения:    


Вы не можете начинать темы
Вы не можете отвечать на сообщения
Вы не можете редактировать свои сообщения
Вы не можете удалять свои сообщения
Вы не можете голосовать в опросах
Вы не можете прикреплять файлы к сообщениям
Вы можете скачивать файлы