Loading...
Error

Скачать Смерть в раю / Death in Paradise (04x01-06) (Олрик Райли и др.) [2015, триллер, драма, криминал, детектив, HDTV] [720p] [DVO (Райдо)]+[Eng]+[Sub Rus] торрент без регистрации

 
Статистика раздачи
Размер:  7,46 GB   |    Скачан:  210 раз
Сидов:  1  [  0 KB/s  ]  
 
Автор Сообщение

МихаНЕзатор

[] 

Информация о фильме
Название: Смерть в раю
Оригинальное название: Death in Paradise
Год выхода: 2015
Жанр: триллер, драма, криминал, детектив
Режиссер: Олрик Райли, Роджер Голдби, Пол Харрисон

В ролях: Сара Мартинс, Дэнни Джон-Джулс, Гари Карр, Элизабет Буржин, Бен Миллер, Дон Уоррингтон, Крис Маршалл, Эдриан Данбар, Морвен Кристи, Мона Хэммонд

О фильме: Детективный сериал о инспекторе Лондонского управления полиции, Ричарде Пуле, которого отправили вести расследования в одно из самых (по его мнению) ужасных мест на земле — карибский остров Сент-Мари.



Страна: Великобритания, Франция
Студия: Red Planet Pictures and Atlantique Production, in association with Kudos for the BBC and France Télévisions
Продолжительность: ~00:59:00 серия
Перевод: Любительский (двухголосый закадровый) [студия Райдо]

Файл
Кодек: h.264 / AC3
Качество: HDTVRip 720p
Видео: AVC, 1280x720 (16:9), 25.000 fps, 2 388 Kbps (0.104 bit/pixel)
Звук:
Аудио #1: AC-3, 48.0 KHz, 2 ch, 192 Kbps, CBR (Russian)
Аудио #2: AC-3, 48.0 KHz, 2 ch, 192 Kbps, CBR (English)
Субтитры: Русские (вшитые, отключаемые)

АНОНСЫ ПОПУЛЯРНЫХ РАЗДАЧ


Торрент обновлён, добавлена 6-я серия!
General
Unique ID : 206630353440580883614958772538027061029 (0x9B738EFA94944E0BA5B79F7B4538AF25)
Complete name : /Death In Paradise s04 (2015)/Death.In.Paradise.S04E01.720p.HDTV.x264-RAIDHO.mkv
Format : Matroska
Format version : Version 2
File size : 1.16 GiB
Duration : 58mn 32s
Overall bit rate : 2 828 Kbps
Encoded date : UTC 2015-01-15 18:13:12
Writing application : mkvmerge v4.3.0 ('Escape from the Island') сборка от Sep 5 2010 10:30:51
Writing library : libebml v1.0.0 + libmatroska v1.0.0

Video
ID : 1
Format : AVC
Format/Info : Advanced Video Codec
Format profile : High@L4.1
Format settings, CABAC : Yes
Format settings, ReFrames : 5 frames
Codec ID : V_MPEG4/ISO/AVC
Duration : 58mn 32s
Bit rate : 2 388 Kbps
Width : 1 280 pixels
Height : 720 pixels
Display aspect ratio : 16:9
Frame rate mode : Constant
Frame rate : 25.000 fps
Color space : YUV
Chroma subsampling : 4:2:0
Bit depth : 8 bits
Scan type : Progressive
Bits/(Pixel*Frame) : 0.104
Stream size : 1 000 MiB (84%)
Writing library : x264 core 144 r2525 40bb568
Encoding settings : cabac=1 / ref=5 / deblock=1:0:0 / analyse=0x3:0x113 / me=umh / subme=8 / psy=1 / psy_rd=1.00:0.00 / mixed_ref=1 / me_range=16 / chroma_me=1 / trellis=1 / 8x8dct=1 / cqm=0 / deadzone=21,11 / fast_pskip=1 / chroma_qp_offset=-2 / threads=12 / lookahead_threads=2 / sliced_threads=0 / nr=0 / decimate=1 / interlaced=0 / bluray_compat=0 / constrained_intra=0 / bframes=3 / b_pyramid=2 / b_adapt=2 / b_bias=0 / direct=3 / weightb=1 / open_gop=0 / weightp=2 / keyint=250 / keyint_min=25 / scenecut=40 / intra_refresh=0 / rc_lookahead=50 / rc=crf / mbtree=1 / crf=19.0 / qcomp=0.60 / qpmin=0 / qpmax=69 / qpstep=4 / ip_ratio=1.40 / aq=1:1.00
Language : English
Default : Yes
Forced : No

Audio #1
ID : 2
Format : AC-3
Format/Info : Audio Coding 3
Mode extension : CM (complete main)
Format settings, Endianness : Big
Codec ID : A_AC3
Duration : 58mn 32s
Bit rate mode : Constant
Bit rate : 192 Kbps
Channel(s) : 2 channels
Channel positions : Front: L R
Sampling rate : 48.0 KHz
Bit depth : 16 bits
Compression mode : Lossy
Stream size : 80.4 MiB (7%)
Language : Russian
Default : Yes
Forced : No

Audio #2
ID : 3
Format : AC-3
Format/Info : Audio Coding 3
Mode extension : CM (complete main)
Format settings, Endianness : Big
Codec ID : A_AC3
Duration : 58mn 32s
Bit rate mode : Constant
Bit rate : 192 Kbps
Channel(s) : 2 channels
Channel positions : Front: L R
Sampling rate : 48.0 KHz
Bit depth : 16 bits
Compression mode : Lossy
Stream size : 80.4 MiB (7%)
Language : English
Default : No
Forced : No

Text
ID : 4
Format : UTF-8
Codec ID : S_TEXT/UTF8
Codec ID/Info : UTF-8 Plain Text
Language : Russian
Default : No
Forced : No



Скачать Смерть.в.раю.Death.in.Paradise.(04x01-06).(Олрик.Райли.и.др.).[2015.триллер.драма.криминал.детектив.HDTV].[720p].[DVO.(Райдо)]+[Eng]+[Sub.Rus].torrent без регистрации
Золото ЗОЛОТАЯ РАЗДАЧА! СКАЧАННОЕ НЕ ЗАСЧИТЫВАЕТСЯ! Золото
Дата: Зарегистрирован   [ Тип: внутренний ] Как тут cкачать?
MAGNET ссылка
MAGNET ссылка


Скачать .torrent

20 KB

Статус: проверено DHT
Скачан: торрент - 210 раз, раздача полностью - 1 раз
Размер: 7,46 GB
Оценка:  - (Голосов: 0)
Поблагодарили: 0
Поделиться ссылкой на эту раздачу с друзьями:
В контактеFacebookОдноклассникиTwitterLivejournalМой МирLiveinternet
 

 
Показать сообщения:    


Вы не можете начинать темы
Вы не можете отвечать на сообщения
Вы не можете редактировать свои сообщения
Вы не можете удалять свои сообщения
Вы не можете голосовать в опросах
Вы не можете прикреплять файлы к сообщениям
Вы можете скачивать файлы