Loading...
Error

Скачать Чужая территория / Нарушение территории / Trespass (Уолтер Хилл / Walter Hill) [1992 г., Боевик, Триллер, HDTVRip] [VO] (ОРТ) + [MVO] + [AVO] (Гаврилов) + Original (Eng) торрент без регистрации

 
Статистика раздачи
Размер:  1,73 GB   |    Скачан:  118 раз

Полного источника не было: 24 минуты

 
Автор Сообщение

leon030982

[] 

Чужая территория / Нарушение территории / Trespass

Год выпуска: 1992

Страна: США
Жанр: боевик, триллер
Продолжительность: 01:40:57
Перевод: Студийный (одноголосый, закадровый) ОРТ
Перевод: Профессиональный (многоголосый, закадровый)
Перевод: Авторский (одноголосый, закадровый) - [А. Гаврилов] (отдельно)
Субтитры: нет
Оригинальная аудиодорожка: английский

Режиссер: Уолтер Хилл / Walter Hill

В ролях: Билл Пэкстон (Vince), Айс-Ти (King James), Уильям Сэдлер (Don), Айс Кьюб (Savon), Арт Эванс (Bradlee), Деворо Уайт (Lucky), Брюс А. Янг (Raymond), Гленн Пламмер (Luther), Стоуни Джексон (Wickey), Т. Э. Рассел (Video), Том ’Тайни’ Листер мл. (Cletus), Джон Тоулс-Бей (Goose)
Мировая премьера: 25 декабря 1992
Описание: Дон и Винс - пожарные из Арканзаса, решившие, что нарвались на «золотую мину», когда им в руки попала «карта сокровищ», ведущая к золоту, украденному из католической церкви более 50 лет назад. Теперь его стоимость составляет более миллиона.
Золото спрятано где-то в потолке огромной, заброшенной фабрики в Восточном гетто Сент-Луиса. Чистая случайность приводит торговца наркотиками Кинга Джеймса и его боевиков на фабрику, чтобы казнить убийцу одного из своих курьеров.

Рейтинг
kinopoisk.ru: 6.975 (543)
imdb.com: 6.20 (6750)
MPAA
: R - Лицам до 17 лет обязательно присутствие взрослого
Качество: HDTVRip (Исходник: HDTV 1080i)
Формат: AVI → //SAMPLE//
Видео: 720x400 (1.80:1), 23.976 fps, XviD build 66 ~1668 kbps avg, 0.24 bit/pixel
Аудио RUS: 48 kHz, AC3 Dolby Digital, 2/0 (L,R) ch, ~192 kbps - VO - ОРТ (И. Тарадайкин)
Аудио ENG: 48 kHz, AC3 Dolby Digital, 2/0 (L,R) ch, ~192 kbps - Original
Аудио RUS: 48 kHz, AC3 Dolby Digital, 2/0 (L,R) ch, ~192 kbps - MVO - отдельно
Аудио RUS: 48 kHz, AC3 Dolby Digital, 2/0 (L,R) ch, ~192 kbps - AVO (Гаврилов) - отдельно
Аудио UKR: 48 kHz, AC3 Dolby Digital, 2/0 (L,R) ch, ~192 kbps - MVO - Новый канал (Яндекс диск)
Общее
Полное имя : F:\Video\AVI\Films\Chuzhaja.Territorija.1992.DUAL.HDTVRip.XviD.AC3.-AllFilms\Chuzhaja.Territorija.1992.DUAL.HDTVRip.XviD.AC3.-AllFilms.avi
Формат : AVI
Формат/Информация : Audio Video Interleave
Размер файла : 1,46 Гбайт
Продолжительность : 1 ч. 40 м.
Общий поток : 2067 Кбит/сек
Название фильма : Чужая территория / Нарушение территории / Trespass (1992)
Режиссёр : Shevon (HDTV 1080i)
Программа кодирования : VirtualDubMod 1.5.10.3 | www.virtualdub-fr.org || (build 2550/release)
Правообладатель : AllFilms (rutracker.org)
Видео
Идентификатор : 0
Формат : MPEG-4 Visual
Профиль формата : Advanced Simple@L5
Параметр BVOP формата : 1
Параметр QPel формата : Нет
Параметр GMC формата : Без точки перехода
Параметр матрицы формата : Выборочная
Идентификатор кодека : XVID
Идентификатор кодека/Подсказка : XviD
Продолжительность : 1 ч. 40 м.
Битрейт : 1669 Кбит/сек
Ширина : 720 пикселей
Высота : 400 пикселей
Соотношение сторон : 16:9
Частота кадров : 23,976 кадра/сек
Цветовое пространство : YUV
Субдискретизация насыщенности : 4:2:0
Битовая глубина : 8 бит
Тип развёртки : Прогрессивная
Метод сжатия : С потерями
Бит/(Пиксели*Кадры) : 0.242
Размер потока : 1,18 Гбайт (81%)
Библиотека кодирования : XviD 66
Аудио #1
Идентификатор : 1
Формат : AC-3
Формат/Информация : Audio Coding 3
Расширение режима : CM (complete main)
Параметр Endianness формата : Big
Идентификатор кодека : 2000
Продолжительность : 1 ч. 40 м.
Вид битрейта : Постоянный
Битрейт : 192 Кбит/сек
Каналы : 2 канала
Расположение каналов : Front: L R
Частота : 48,0 КГц
Битовая глубина : 16 бит
Метод сжатия : С потерями
Размер потока : 139 Мбайт (9%)
Выравнивание : Разделение по промежуткам
Продолжительность промежутка : 42 мс. (1,00 видеокадр)
Время предзагрузки промежутка : 500 мс.
Аудио #2
Идентификатор : 2
Формат : AC-3
Формат/Информация : Audio Coding 3
Расширение режима : CM (complete main)
Параметр Endianness формата : Big
Идентификатор кодека : 2000
Продолжительность : 1 ч. 40 м.
Вид битрейта : Постоянный
Битрейт : 192 Кбит/сек
Каналы : 2 канала
Расположение каналов : Front: L R
Частота : 48,0 КГц
Битовая глубина : 16 бит
Метод сжатия : С потерями
Размер потока : 139 Мбайт (9%)
Выравнивание : Разделение по промежуткам
Продолжительность промежутка : 42 мс. (1,00 видеокадр)
Время предзагрузки промежутка : 500 мс.


В первоначальной версии сценария, персонажа «Лаки» (Lucky) звали Люси (Lucy), и она была подругой Короля Джеймса. Также Винс и Дон были не из Форт Смит, штат Арканзас, а из Эшланда, штат Кентукки.
Изначально Джон Зорн написал всю музыку для фильма. Однако его работа не устроила Уолтера Хилла, и он пригласил Рая Кудера переписать музыкальное сопровождение.
Фильм частично основан на картине «Сокровища Сьерра Мадре» (1948).
Первоначальное название фильма - «Мародер».



Скачать Чужая.территория.Нарушение.территории.Trespass.(Уолтер.Хилл.Walter.Hill).[1992.г.Боевик.Триллер.HDTVRip].[VO].(ОРТ).+.[MVO].+.[AVO].(Гаврилов).+.Original.(Eng).torrent без регистрации
Золото ЗОЛОТАЯ РАЗДАЧА! СКАЧАННОЕ НЕ ЗАСЧИТЫВАЕТСЯ! Золото
Дата: Зарегистрирован   [ Тип: внутренний ] Как тут cкачать?
MAGNET ссылка
MAGNET ссылка


Скачать .torrent

36 KB

Статус: проверено DHT
Скачан: торрент - 118 раз, раздача полностью - 27 раз
Размер: 1,73 GB
Оценка:  - (Голосов: 0)
Поблагодарили: 0
Поделиться ссылкой на эту раздачу с друзьями:
В контактеFacebookОдноклассникиTwitterLivejournalМой МирLiveinternet
 

 
Показать сообщения:    


Вы не можете начинать темы
Вы не можете отвечать на сообщения
Вы не можете редактировать свои сообщения
Вы не можете удалять свои сообщения
Вы не можете голосовать в опросах
Вы не можете прикреплять файлы к сообщениям
Вы можете скачивать файлы