Loading...
Error

Скачать Геркулес в Нью-Йорке / Hercules in New York (Артур Аллан Сейдельман / Arthur Allan Seidelman) [1969, фэнтези, приключения, DVDRip] [AVO] (Юрий Сербин) + [Orig] Eng торрент без регистрации

 
Статистика раздачи
Размер:  1,45 GB   |    Скачан:  105 раз
Сидов:  1  [  0 KB/s  ]  
 
Автор Сообщение

leon030982

[] 

Геркулес в Нью-Йорке / Hercules in New York


Год выпуска: 1969
Страна: США
Жанр: фэнтези, приключения
Продолжительность: 01:32:40
Перевод: Авторский (одноголосый, закадровый) [Юрий Сербин]
Cубтитры: нет
Оригинальная аудиодорожка: английский

Режиссер: Артур Аллан Сейдельман / Arthur Allan Seidelman

В ролях: Арнольд Шварценеггер, Арнольд Стэнг, Дебора Лумис, Джеймс Карен, Эрнест Грейвз, Танни МакДональд, Харольд Бурстейн

Описание: После долгой жизни на Олимпе Геркулеc, незаконнорожденный сын Зевса, вопреки желанию отца, отправляется на Землю и оказывается в Нью-Йорке. Но для человека, который жил в Греции нелегко привыкнуть к современной жизни…

Сэмпл

Качество: DVDRip
Формат: AVI
Видео кодек: XviD
Аудио кодек: AC3
Видео: 640x464 (1.38:1), 23.976 fps, XviD build 50, 1842 Kbps
Аудио 1: 48 KHz, AC3, 2 ch, 192 Kbps - AVO (Ю. Сербин)
Аудио 2: 48 KHz, AC3, 2 ch, 192 Kbps - Original Eng

Цитата:

Видеоряд от -- Gellard.
За звуковую дорожку с переводом Юрия Сербина большое спасибо -- Kino-profan.
За синхронизацию звуковой дорожки огромная благодарность -- JUSTKANT.

В звуковой дорожке есть небольшая вставка с многоголосым переводом в интервале 00:00:49 - 00:01:10.
General
Complete name : C:\Users\Сергей\Downloads\Геркулес в Нью-Йорке.avi
Format : AVI
Format/Info : Audio Video Interleave
File size : 1.45 GiB
Duration : 1h 32mn
Overall bit rate : 2 240 Kbps
Movie name : Hercules in New York
Director : Gellard
Genre : Comedy
Writing application : VirtualDubMod 1.5.10.2 (build 2540/release)
Writing library : VirtualDubMod build 2540/release
Original source form/Name : Movie
Video
ID : 0
Format : MPEG-4 Visual
Format profile : Advanced Simple@L5
Format settings, BVOP : 1
Format settings, QPel : No
Format settings, GMC : No warppoints
Format settings, Matrix : Default (MPEG)
Codec ID : XVID
Codec ID/Hint : XviD
Duration : 1h 32mn
Bit rate : 1 842 Kbps
Width : 640 pixels
Height : 464 pixels
Display aspect ratio : 1.379
Frame rate : 23.976 fps
Color space : YUV
Chroma subsampling : 4:2:0
Bit depth : 8 bits
Scan type : Progressive
Compression mode : Lossy
Bits/(Pixel*Frame) : 0.259
Stream size : 1.19 GiB (82%)
Writing library : XviD 1.2.1 (UTC 2008-12-04)
Audio #1
ID : 1
Format : AC-3
Format/Info : Audio Coding 3
Mode extension : CM (complete main)
Format settings, Endianness : Big
Codec ID : 2000
Duration : 1h 32mn
Bit rate mode : Constant
Bit rate : 192 Kbps
Channel(s) : 2 channels
Channel positions : Front: L R
Sampling rate : 48.0 KHz
Bit depth : 16 bits
Compression mode : Lossy
Stream size : 127 MiB (9%)
Alignment : Split accross interleaves
Interleave, duration : 42 ms (1.00 video frame)
Interleave, preload duration : 500 ms
Audio #2
ID : 2
Format : AC-3
Format/Info : Audio Coding 3
Mode extension : CM (complete main)
Format settings, Endianness : Big
Codec ID : 2000
Duration : 1h 32mn
Bit rate mode : Constant
Bit rate : 192 Kbps
Channel(s) : 2 channels
Channel positions : Front: L R
Sampling rate : 48.0 KHz
Bit depth : 16 bits
Compression mode : Lossy
Stream size : 127 MiB (9%)
Alignment : Split accross interleaves
Interleave, duration : 42 ms (1.00 video frame)
Interleave, preload duration : 500 ms



Скачать Геркулес.в.Нью-Йорке.Hercules.in.New.York.(Артур.Аллан.Сейдельман.Arthur.Allan.Seidelman).[1969.фэнтези.приключения.DVDRip].[AVO].(Юрий.Сербин).+.[Orig].Eng.torrent без регистрации
Золото ЗОЛОТАЯ РАЗДАЧА! СКАЧАННОЕ НЕ ЗАСЧИТЫВАЕТСЯ! Золото
Дата: Зарегистрирован   [ Тип: внутренний ] Как тут cкачать?
MAGNET ссылка
MAGNET ссылка


Скачать .torrent

15 KB

Статус: проверено DHT
Скачан: торрент - 105 раз, раздача полностью - 2 раз
Размер: 1,45 GB
Оценка:  - (Голосов: 0)
Поблагодарили: 0
Поделиться ссылкой на эту раздачу с друзьями:
В контактеFacebookОдноклассникиTwitterLivejournalМой МирLiveinternet
 

 
Показать сообщения:    


Вы не можете начинать темы
Вы не можете отвечать на сообщения
Вы не можете редактировать свои сообщения
Вы не можете удалять свои сообщения
Вы не можете голосовать в опросах
Вы не можете прикреплять файлы к сообщениям
Вы можете скачивать файлы