Loading...
Error

Скачать Поезд на Юму / 3:10 to Yuma (Джеймс Мэнголд / James Mangold) [2007, криминал, приключения, вестерн, BDRip] [AVO] (А.Гаврилов) торрент без регистрации

 
Статистика раздачи
Размер:  1,46 GB   |    Скачан:  109 раз
Сидов:  1  [  0 KB/s  ]  
 
Автор Сообщение

leon030982

[] 

Поезд на Юму / 3:10 to Yuma

Год выпуска: 2007
Страна: США
Жанр: драма, криминал, приключения, вестерн
Продолжительность: 02:02:30
Перевод: Авторский (одноголосый, закадровый) Андрей Гаврилов
Cубтитры: нет

Режиссер: Джеймс Мэнголд / James Mangold

В ролях: Рассел Кроу, Кристиан Бэйл, Логан Лерман, Даллас Робертс, Бен Фостер, Питер Фонда, Винесса Шоу, Алан Тьюдик, Стивен Хартли, Гретхен Мол

Описание: После ареста известного бандита Бена Уэйда его банда продолжает угрожать местным жителям. Ветеран Гражданской войны и владелец небольшого ранчо Дэн Эванс соглашается тайно доставить Уэйда в ближайший город с железнодорожной станцией, чтобы того доставили на поезде в форт Юма. Как только они останавливаются в гостинице, становится очевидным, что тайна раскрыта, и за обоими начинается охота…



Качество видео: BDRip [спасибо dalemake]
Формат видео: AVI
Видео кодек: XviD
Аудио кодек: AC3
Видео: 720x304 (2.37:1), 23.976 fps, XviD build 73 ~1311 kbps avg, 0.25 bit/pixel
Аудио: 48 kHz, AC3 Dolby Digital, 3/2 (L,C,R,l,r) + LFE ch, ~384 kbps
За перевод А.Ю.Гаврилова большое спасибо пользователям форума hdtracker
_MyxAmoP_; Krasnov; Gangster; ZeRoNe; Denis1980; Chistobaev; kondratzx; Semvlk; Gross1978; ultrajeka; dunhill200; Диммон; Brown15; karantin66; Luka69; KerkP; Role; saenwert; KpucTo161; Loki; hulahup; rydanes; kolibri2; marlboro-man"]
Полное имя : Поезд на Юму.avi
Формат : AVI
Формат/Информация : Audio Video Interleave
Размер файла : 1,46 Гбайт
Продолжительность : 2 ч. 2 м.
Общий поток : 1705 Кбит/сек
Программа кодирования : VirtualDubMod 1.5.10.2 (build 2540/release)
Библиотека кодирования : VirtualDubMod build 2540/release
Видео
Идентификатор : 0
Формат : MPEG-4 Visual
Профиль формата : Advanced Simple@L5
Параметр BVOP формата : 1
Параметр QPel формата : Нет
Параметр GMC формата : Без точки перехода
Параметр матрицы формата : Выборочная
Идентификатор кодека : XVID
Идентификатор кодека/Подсказка : XviD
Продолжительность : 2 ч. 2 м.
Битрейт : 1312 Кбит/сек
Ширина : 720 пикселей
Высота : 304 пикселя
Соотношение сторон : 2,35:1
Частота кадров : 23,976 кадра/сек
Цветовое пространство : YUV
Субдискретизация насыщенности : 4:2:0
Битовая глубина : 8 бит
Тип развёртки : Прогрессивная
Метод сжатия : С потерями
Бит/(Пиксели*Кадры) : 0.250
Размер потока : 1,12 Гбайт (77%)
Библиотека кодирования : XviD 73
Аудио
Идентификатор : 1
Формат : AC-3
Формат/Информация : Audio Coding 3
Расширение режима : CM (complete main)
Параметр Endianness формата : Big
Идентификатор кодека : 2000
Продолжительность : 2 ч. 2 м.
Вид битрейта : Постоянный
Битрейт : 384 Кбит/сек
Каналы : 6 каналов
Расположение каналов : Front: L C R, Side: L R, LFE
Частота : 48,0 КГц
Битовая глубина : 16 бит
Метод сжатия : С потерями
Размер потока : 336 Мбайт (23%)
Выравнивание : Разделение по промежуткам
Продолжительность промежутка : 42 мс. (1,00 видеокадр)
Время предзагрузки промежутка : 500 мс.



Скачать Поезд.на.Юму.3.10.to.Yuma.(Джеймс.Мэнголд.James.Mangold).[2007.криминал.приключения.вестерн.BDRip].[AVO].(А.Гаврилов).torrent без регистрации
Золото ЗОЛОТАЯ РАЗДАЧА! СКАЧАННОЕ НЕ ЗАСЧИТЫВАЕТСЯ! Золото
Дата: Зарегистрирован   [ Тип: внутренний ] Как тут cкачать?
MAGNET ссылка
MAGNET ссылка


Скачать .torrent

15 KB

Статус: проверено DHT
Скачан: торрент - 109 раз, раздача полностью - 5 раз
Размер: 1,46 GB
Оценка:  - (Голосов: 0)
Поблагодарили: 1
Поделиться ссылкой на эту раздачу с друзьями:
В контактеFacebookОдноклассникиTwitterLivejournalМой МирLiveinternet
 

 

Gошан

[] 

Список форумов goldenshara.net » Фильмы до 2000 года.... куда попал
 

[] 

Топик был перенесен из форума Фильмы до 2000 года в форум Фильмы 2005-2008 года

leon030982
 

leon030982

[] 

Gошан писал(а):

Список форумов goldenshara.net » Фильмы до 2000 года.... куда попал
не ошибается тот кто ничего не делает ab Спасибо за подсказку,исправил az
 
Показать сообщения:    


Вы не можете начинать темы
Вы не можете отвечать на сообщения
Вы не можете редактировать свои сообщения
Вы не можете удалять свои сообщения
Вы не можете голосовать в опросах
Вы не можете прикреплять файлы к сообщениям
Вы можете скачивать файлы