Loading...
Error

Скачать Агент Картер / Agent Carter (01x01-06 из 08) (Луис Д'Эспозито, Питер Лето, Джо Руссо, Скотт Уинэнт) [2014-2015, фантастика, боевик, приключения, WEB-DLRip] [MVO (Jaskier)] торрент без регистрации

 
Статистика раздачи
Размер:  3,28 GB   |    Скачан:  190 раз
Сидов:  1  [  0 KB/s  ]  
 
Автор Сообщение

МихаНЕзатор

[] 

Год выпуска: 2015
Страна: США
Жанр: фантастика, боевик,
Продолжительность: 00:42:37
Перевод: Профессиональный (многоголосый закадровый) студия Jaskier
Режиссер: Луис Д’Эспозито, Питер Лето, Джо Руссо, Скотт Уинэнт,

В ролях: Хейли Этвелл / Hayley Atwell (Peggy Carter), Ши Уигхэм / Shea Whigham (Roger Dooley), Линдси Фонсека / Lyndsy Fonseca (Angie Martinelli)


Описание: История Пегги Картер. В 1946 году мир нанес Пегги серьезный удар, когда она оказывается в неудобном для нее положении с возвращением домой мужчин со сражений за границей. Работая на секретную организацию СНР (Стратегический Научный Резерв), Пегги должна найти баланс между административной работой и секретными миссиями для Говарда Старка, одновременно пытаясь жить нормальной жизнью одинокой женщины в Америке после утраты любви всей ее жизни — Стива Роджерса.
Перевод: MartinaG
Роли озвучивали: Анастасия Жаркова (голос из дубляжа), Таисия Тришина, Михаил Кшиштовский, Денис Строев и Сергей Пономарёв.



Качество: WEB-DLRip
Формат: AVI
Видео кодек: XviD
Аудио кодеk: AC3
Видео: 688x384 (16:9), 23.976 fps, XviD, 1 444 Kbps
Аудио: Аудио #1: AC3, 192 Kbps, 48.0 KHz, 2 ch
Аудио #2: AC3, 192 Kbps, 48.0 KHz, 2 ch


АНОНСЫ ПОПУЛЯРНЫХ РАЗДАЧ


24.02.2015 г. торрент обновлён, добавлена 6-я серия!

Код:

Общее
Общее
Полное имя                               : E:Агент Картер S011.avi
Формат                                   : AVI
Формат/Информация                        : Audio Video Interleave
Размер файла                             : 562 Мбайт
Продолжительность                        : 42 м.
Общий поток                              : 1843 Кбит/сек
Программа кодирования                    : VirtualDubMod 1.5.10.3 | www.virtualdub-fr.org || (build 2550/release)
Библиотека кодирования                   : VirtualDubMod build 2550/release

Видео
Идентификатор                            : 0
Формат                                   : MPEG-4 Visual
Профиль формата                          : Advanced Simple@L5
Параметр BVOP формата                    : 1
Параметр QPel формата                    : Нет
Параметр GMC формата                     : Без точки перехода
Параметр матрицы формата                 : Выборочная
Идентификатор кодека                     : XVID
Идентификатор кодека/Подсказка           : XviD
Продолжительность                        : 42 м.
Битрейт                                  : 1444 Кбит/сек
Ширина                                   : 688 пикселей
Высота                                   : 384 пикселя
Соотношение сторон                       : 16:9
Частота кадров                           : 23,976 кадра/сек
Цветовое пространство                    : YUV
Субдискретизация насыщенности            : 4:2:0
Битовая глубина                          : 8 бит
Тип развёртки                            : Прогрессивная
Метод сжатия                             : С потерями
Бит/(Пиксели*Кадры)                      : 0.228
Размер потока                            : 440 Мбайт (78%)
Библиотека кодирования                   : XviD 73

Аудио #1
Идентификатор                            : 1
Формат                                   : AC-3
Формат/Информация                        : Audio Coding 3
Расширение режима                        : CM (complete main)
Параметр Endianness формата              : Big
Идентификатор кодека                     : 2000
Продолжительность                        : 42 м.
Вид битрейта                             : Постоянный
Битрейт                                  : 192 Кбит/сек
Каналы                                   : 2 канала
Расположение каналов                     : Front: L R
Частота                                  : 48,0 КГц
Битовая глубина                          : 16 бит
Метод сжатия                             : С потерями
Размер потока                            : 58,5 Мбайт (10%)
Выравнивание                             : Разделение по промежуткам
Продолжительность промежутка             : 42  мс. (1,00 видеокадр)
Время предзагрузки промежутка            : 500  мс.

Аудио #2
Идентификатор                            : 2
Формат                                   : AC-3
Формат/Информация                        : Audio Coding 3
Расширение режима                        : CM (complete main)
Параметр Endianness формата              : Big
Идентификатор кодека                     : 2000
Продолжительность                        : 42 м.
Вид битрейта                             : Постоянный
Битрейт                                  : 192 Кбит/сек
Каналы                                   : 2 канала
Расположение каналов                     : Front: L R
Частота                                  : 48,0 КГц
Битовая глубина                          : 16 бит
Метод сжатия                             : С потерями
Размер потока                            : 58,5 Мбайт (10%)
Выравнивание                             : Разделение по промежуткам
Продолжительность промежутка             : 42  мс. (1,00 видеокадр)
Время предзагрузки промежутка            : 500  мс.




Скачать Агент.Картер.Agent.Carter.(01x01-06.из.08).(Луис.Д'Эспозито.Питер.Лето.Джо.Руссо.Скотт.Уинэнт).[2014-2015.фантастика.боевик.приключения.WEB-DLRip].[MVO.(Jaskier)].torrent без регистрации
Золото ЗОЛОТАЯ РАЗДАЧА! СКАЧАННОЕ НЕ ЗАСЧИТЫВАЕТСЯ! Золото
Дата: Зарегистрирован   [ Тип: внутренний ] Как тут cкачать?
MAGNET ссылка
MAGNET ссылка


Скачать .torrent

133 KB

Статус: проверено DHT
Скачан: торрент - 190 раз, раздача полностью - 0 раз
Размер: 3,28 GB
Оценка:  - (Голосов: 0)
Поблагодарили: 0
Поделиться ссылкой на эту раздачу с друзьями:
В контактеFacebookОдноклассникиTwitterLivejournalМой МирLiveinternet
 

 
Показать сообщения:    


Вы не можете начинать темы
Вы не можете отвечать на сообщения
Вы не можете редактировать свои сообщения
Вы не можете удалять свои сообщения
Вы не можете голосовать в опросах
Вы не можете прикреплять файлы к сообщениям
Вы можете скачивать файлы