Loading...
Error

Скачать Мальчишник / Bachelor Party (Нил Израел /Neal Israel) [1984, мелодрама, комедия, HDRip] [AVO] (Л.Володарский) торрент без регистрации

 
Статистика раздачи
Размер:  1,47 GB   |    Скачан:  109 раз
Сидов:  1  [  0 KB/s  ]  
 
Автор Сообщение

leon030982

[] 

Мальчишник / Bachelor Party

Год выпуска: 1984
Страна: США
Жанр: мелодрама, комедия
Продолжительность: 01:45:29
Перевод: Авторский (одноголосый, закадровый) [Леонид Володарский]
Cубтитры: нет

Режиссер: Нил Израел /Neal Israel

В ролях: Том Хэнкс, Тоуни Кайтейн, Эдриен Змед, Джордж Гриззард, Барбара Стюарт, Роберт Прескотт, Уильям Теппер, Уэнди Джо Спербер, Бэрри Даймонд, Гари Гроссман

Описание: В последний день перед свадьбой водитель школьного автобуса Рик решает собрать всех друзей на последнюю отвязную вечеринку по принципу «пива и женщин много не бывает». Его невеста Дебби берет ситуацию под свои контроль и возглавляет отряд верных подружек, направляющихся на мальчишник.
Устроив ловушку проституткам, вызванным к Рику, подружки переодеваются и проникают в дом, где проходит вечеринка. Тем временем богатый отец Дебби, недовольный тем, что дочь выходит замуж за неудачника, натравливает на всю компанию бывшего возлюбленного Дебби с целью вернуть дочь любой ценой.
Рик доблестно справится с ситуацией — отлично повеселится, не ударит в грязь лицом перед друзьями и при этом сохранит верность своей невесте.



Качество видео: HDRip
Формат видео: AVI
Видео кодек: XviD
Аудио кодек: AC3
Видео: 704x384 (1.83:1), 23.976 fps, XviD build 73 ~1789 kbps avg, 0.28 bit/pixel
Аудио: 48 kHz, AC3 Dolby Digital, 2/0 (L,R) ch, ~192 kbps
За дорогу Володарского большое спасибо alenavova и JUSTKANT, синхрон JUSTKANT
Полное имя : Мальчишник 1984.avi
Формат : AVI
Формат/Информация : Audio Video Interleave
Размер файла : 1,47 Гбайт
Продолжительность : 1 ч. 45 м.
Общий поток : 1990 Кбит/сек
Программа кодирования : VirtualDubMod 1.5.10.2 (build 2540/release)
Видео
Идентификатор : 0
Формат : MPEG-4 Visual
Профиль формата : Advanced Simple@L5
Параметр BVOP формата : 2
Параметр QPel формата : Нет
Параметр GMC формата : Без точки перехода
Параметр матрицы формата : Выборочная
Идентификатор кодека : XVID
Идентификатор кодека/Подсказка : XviD
Продолжительность : 1 ч. 45 м.
Битрейт : 1789 Кбит/сек
Ширина : 704 пикселя
Высота : 384 пикселя
Соотношение сторон : 1,85:1
Частота кадров : 23,976 кадра/сек
Цветовое пространство : YUV
Субдискретизация насыщенности : 4:2:0
Битовая глубина : 8 бит
Тип развёртки : Прогрессивная
Метод сжатия : С потерями
Бит/(Пиксели*Кадры) : 0.276
Размер потока : 1,32 Гбайт (90%)
Библиотека кодирования : XviD 73
Аудио
Идентификатор : 1
Формат : AC-3
Формат/Информация : Audio Coding 3
Расширение режима : CM (complete main)
Параметр Endianness формата : Big
Идентификатор кодека : 2000
Продолжительность : 1 ч. 45 м.
Вид битрейта : Постоянный
Битрейт : 192 Кбит/сек
Каналы : 2 канала
Расположение каналов : Front: L R
Частота : 48,0 КГц
Битовая глубина : 16 бит
Метод сжатия : С потерями
Размер потока : 145 Мбайт (10%)
Выравнивание : Разделение по промежуткам
Продолжительность промежутка : 42 мс. (1,00 видеокадр)
Время предзагрузки промежутка : 500 мс.



Скачать Мальчишник.Bachelor.Party.(Нил.Израел.Neal.Israel).[1984.мелодрама.комедия.HDRip].[AVO].(Л.Володарский).torrent без регистрации
Золото ЗОЛОТАЯ РАЗДАЧА! СКАЧАННОЕ НЕ ЗАСЧИТЫВАЕТСЯ! Золото
Дата: Зарегистрирован   [ Тип: внутренний ] Как тут cкачать?
MAGNET ссылка
MAGNET ссылка


Скачать .torrent

15 KB

Статус: проверено DHT
Скачан: торрент - 109 раз, раздача полностью - 3 раз
Размер: 1,47 GB
Оценка:  - (Голосов: 0)
Поблагодарили: 1
Поделиться ссылкой на эту раздачу с друзьями:
В контактеFacebookОдноклассникиTwitterLivejournalМой МирLiveinternet
 

 
Показать сообщения:    


Вы не можете начинать темы
Вы не можете отвечать на сообщения
Вы не можете редактировать свои сообщения
Вы не можете удалять свои сообщения
Вы не можете голосовать в опросах
Вы не можете прикреплять файлы к сообщениям
Вы можете скачивать файлы