Loading...
Error

Скачать Спираль / Helix (Сезон 1-2, Серии 1-26 из 26) (Дуан Кларк, Майк Рол, Брэд Тёрнер) [2014-2015, Фантастика, триллер , WEBDLRip] [MVO] [AlexFilm] торрент без регистрации

 
Статистика раздачи
Размер:  22,19 GB   |    Скачан:  284 раза
Сидов:  1  [  0 KB/s  ]  
 
Автор Сообщение

Nikolai.Baranov

[] 



Спираль / Helix Сезон 1-2, Серии 1-26 из 26




Год выпуска:2014- 2015
Выпущено: США, Канада, Lynda Obst Productions, Muse Entertainment Enterprises, Sony Pictures Television
Жанр: Фантастика, триллер
Продолжительность: 00:42:00
Сезон:1- 2
Серии: 1-26
Количество серий в сезоне: 26
Перевод: Константин Кривоногов
Монтаж и сведение звука: Михаил Шорыгин
Роли озвучивали: Татьяна Манентина
Михаил Суслов
Владимир Курдов
Владислав Данилов

Озвучка:Профессиональная многоголосая закадровая(AlexFilm)
Субтитры: Русские, Английские

Сайт сериала:



Режиссер: Дуан Кларк, Майк Рол, Брэд Тёрнер

В ролях: Билл Кэмпбелл, Джордан Хэйес, Кира Загорский, Марк Ганиме, Хироюки Санада, Нил Напье, Лучана Карро, Джулиан Кэйси, Кристиан Джада

Жанр этого сериала можно описать как научно-фантастический психотриллер с элементами хоррора. Один из создателей «Спирали», Рон Мур, известен нашим зрителям по драме «Каприка» (Caprica) 2009 года. После ее закрытия многие сериаломаны с нетерпением ждали возвращения Мура в большой сай-фай, но никто не предполагал, что это возвращение превзойдет самые смелые ожидания. Helix выстрелил из всех орудий — сюжет, персонажи, визуальный ряд, накал страстей, «бу-моменты», саундтрек, межличностные конфликты. Видно, что к этому продукту приложили руку настоящие поклонники научной фантастики, получающие удовольствие от своей работы.

«Спираль» начинается с того, что группу ученых из Центра по контролю над заболеваниями (Атланта) направляют в Арктику, где группа других ученых попала в очень неприятную ситуацию. Опасный вирус каким-то образом вышел из-под контроля, нескольких человек убил, а одного превратил в монстра. Перед главными героями стоит непростая задача — остановить распространение вируса в закрытом пространстве арктической лаборатории и ни в коем случае не допустить его выхода наружу. Иначе, как можно предположить, в мире начнется примерно то же самое, что в сериале «Ходячие мертвецы».

А пока «переносчики» живут по соседству со здоровыми людьми, и, как плохие соседи по коммуналке, доставляют им немало хлопот. В отличие от классических зомби, эти существа сохранили способность мыслить, но выглядят они при этом все равно мерзко и ведут себя соответствующим образом..





Качество : WEB-DLRip
Формат: AVI
Видео кодек: DivX5
Видео: 2304Кбит/сек,720х404(16.9),в 23.976кадр/сек,MPEG4 Visual(DivX5)
Аудио кодек: AC3
Аудио: Русский (AC3, 6 ch,384 Кбит/с), Aнглийский (AC3, 6 ch, 384 Кбит/с)


Звуковая дорожка сделана путем наложения чистого голоса озвучивателей на центральный канал оригинальной дорожки. Качество идентично звуковой дорожке.




1СЕЗОН

01 Пилот (Pilot)
02 Вектор (Vector)
03 274
04 Одиночная цепь (Single Strand)
05 Белая комната (The White Room)
06 Родство (Aniqatiga)
07 Нулевой выживший (Survivor Zero)
08 Родословная (Bloodline)
09 Уровень Экс (Level X)
10 Загадка (Fushigi)
11 Чёрный дождь (Black Rain)
12 Жатва (The Reaping)
13 В тени (Dans L'Ombre)


2СЕЗОН

01. Сан-Хосе (San Jose)
02. Воссоединение (Reunion)
03. Побег (Scion)
04. Наследие (Densho)
05 Ублиет (Oubliette)
06 Яблоня домашняя (M. Domestica)
07 Перекрёстное опыление (Cross-Pollination)
08 Иди с миром (Vade In Pace)
09 Эктогенез (Ectogenesis)
10 Мать (Mother)
11 План Б (Plan B)
2 Преемник (The Ascendant)
13 О дивный новый мир (O Brave New World)



General
Полное имя : D:\СПИРАЛЬ\HELIX_2014_-_2015_S01_-_S02_RUS_ENG_[AlexFilm]_[AVI_DivX5_DD5.1]_Nikolai.Baranov_WEB-DLRip\S01\HELIX_2014_S01E01_RUS_ENG_[AlexFilm]_[AVI_DivX5_DD5.1]_Nikolai.Baranov_WEB-DLRip.divx
Формат : AVI
Формат/Информация : Audio Video Interleave
Размер файла : 914 MiB
Продолжительность : 41mn 36s
Общий поток : 3 071 Kbps

Video
Идентификатор : 0
Формат : MPEG-4 Visual
Параметр BVOP формата : 1
Параметр QPel формата : No
Параметр GMC формата : No warppoints
Параметр матрицы формата : Default (H.263)
Режим смешивания : Packed bitstream
Идентификатор кодека : DX50
Идентификатор кодека/Подсказка : DivX 5
Продолжительность : 41mn 36s
Битрейт : 2 289 Kbps
Ширина : 720 pixels
Высота : 404 pixels
Соотношение сторон : 16:9
Частота кадров : 23.976 fps
Цветовое пространство : YUV
Субдискретизация насыщенности : 4:2:0
Битовая глубина : 8 bits
Тип развёртки : Progressive
Метод сжатия : Lossy
Бит/(Пиксели*Кадры) : 0.328
Размер потока : 681 MiB (75%)
Заголовок : Video
Библиотека кодирования : DivX 2682

Audio #1
Идентификатор : 1
Формат : AC-3
Формат/Информация : Audio Coding 3
Расширение режима : CM (complete main)
Параметр Endianness формата : Big
Идентификатор кодека : 2000
Продолжительность : 41mn 36s
Вид битрейта : Constant
Битрейт : 384 Kbps
Каналы : 6 channels
Расположение каналов : Front: L C R, Side: L R, LFE
Частота : 48.0 KHz
Битовая глубина : 16 bits
Метод сжатия : Lossy
Размер потока : 114 MiB (13%)
Выравнивание : Split accross interleaves
Продолжительность промежутка : 42 ms (1.00 video frame)
Время предзагрузки промежутка : 500 ms
Заголовок : Audio - en-US01

Audio #2
Идентификатор : 2
Формат : AC-3
Формат/Информация : Audio Coding 3
Расширение режима : CM (complete main)
Параметр Endianness формата : Big
Идентификатор кодека : 2000
Продолжительность : 41mn 36s
Вид битрейта : Constant
Битрейт : 384 Kbps
Каналы : 6 channels
Расположение каналов : Front: L C R, Side: L R, LFE
Частота : 48.0 KHz
Битовая глубина : 16 bits
Метод сжатия : Lossy
Размер потока : 114 MiB (13%)
Выравнивание : Split accross interleaves
Продолжительность промежутка : 42 ms (1.00 video frame)
Время предзагрузки промежутка : 500 ms
Заголовок : Audio - en-US01



General
Полное имя : D:\СПИРАЛЬ\HELIX_2015_S02_RUS_ENG_[AlexFilm]_[AVI_DivX5_DD5.1]_Nikolai.Baranov_WEB-DLRip\HELIX_2015_S02E01_RUS_ENG_[AlexFilm]_[AVI_DivX5_DD5.1]_Nikolai.Baranov_WEB-DLRip.divx
Формат : AVI
Формат/Информация : Audio Video Interleave
Размер файла : 920 MiB
Продолжительность : 41mn 40s
Общий поток : 3 086 Kbps

Video
Идентификатор : 0
Формат : MPEG-4 Visual
Параметр BVOP формата : 1
Параметр QPel формата : No
Параметр GMC формата : No warppoints
Параметр матрицы формата : Default (H.263)
Режим смешивания : Packed bitstream
Идентификатор кодека : DX50
Идентификатор кодека/Подсказка : DivX 5
Продолжительность : 41mn 40s
Битрейт : 2 304 Kbps
Ширина : 720 pixels
Высота : 404 pixels
Соотношение сторон : 16:9
Частота кадров : 23.976 fps
Цветовое пространство : YUV
Субдискретизация насыщенности : 4:2:0
Битовая глубина : 8 bits
Тип развёртки : Progressive
Метод сжатия : Lossy
Бит/(Пиксели*Кадры) : 0.330
Размер потока : 687 MiB (75%)
Заголовок : Video
Библиотека кодирования : DivX 2682

Audio #1
Идентификатор : 1
Формат : AC-3
Формат/Информация : Audio Coding 3
Расширение режима : CM (complete main)
Параметр Endianness формата : Big
Идентификатор кодека : 2000
Продолжительность : 41mn 40s
Вид битрейта : Constant
Битрейт : 384 Kbps
Каналы : 6 channels
Расположение каналов : Front: L C R, Side: L R, LFE
Частота : 48.0 KHz
Битовая глубина : 16 bits
Метод сжатия : Lossy
Размер потока : 114 MiB (12%)
Выравнивание : Split accross interleaves
Продолжительность промежутка : 42 ms (1.00 video frame)
Время предзагрузки промежутка : 500 ms
Заголовок : Audio - en-US01

Audio #2
Идентификатор : 2
Формат : AC-3
Формат/Информация : Audio Coding 3
Расширение режима : CM (complete main)
Параметр Endianness формата : Big
Идентификатор кодека : 2000
Продолжительность : 41mn 40s
Вид битрейта : Constant
Битрейт : 384 Kbps
Каналы : 6 channels
Расположение каналов : Front: L C R, Side: L R, LFE
Частота : 48.0 KHz
Битовая глубина : 16 bits
Метод сжатия : Lossy
Размер потока : 114 MiB (12%)
Выравнивание : Split accross interleaves
Продолжительность промежутка : 42 ms (1.00 video frame)
Время предзагрузки промежутка : 500 ms
Заголовок : Audio - en-US01






1сезон

2сезон


1. Открыть торрент
2. Снять галки с тех файлов торрента, которые мы не хотим закачивать. Оставляем только на нужных нам файлах (файле).
3. Нажать О.К.

В клиенте utorrent

Инструкция

1) Открыть торрент


2) Снять галки с тех файлов торрента, которые мы не хотим закачивать:

* либо вручную, снимая с каждого файла галку( скрин №1)
* либо, нажав кнопку "Снять метки (Select None)", сняв сразу со всех файлов(скрин №2)
№1

№2

Оставляем только на нужных нам файлах (файле).

3)Нажать О.К






Внимание!!! 14.04. 2015. РАЗДАЧА ОБНОВЛЕНА.ФИНАЛ СЕЗОНА. ОБНОВИТЕ ТОРЕНТ ФАЙЛ.ПРИЯТНОГО ПРОСМОТРА .

Релиз от: Nikolai.Baranov










Скачать Спираль.Helix.(Сезон.1-2.Серии.1-26.из.26).(Дуан.Кларк.Майк.Рол.Брэд.Тёрнер).[2014-2015.Фантастика.триллер.WEBDLRip].[MVO].[AlexFilm].torrent без регистрации
Золото ЗОЛОТАЯ РАЗДАЧА! СКАЧАННОЕ НЕ ЗАСЧИТЫВАЕТСЯ! Золото
Дата: Зарегистрирован   [ Тип: внутренний ] Как тут cкачать?
MAGNET ссылка
MAGNET ссылка


Скачать .torrent

67 KB

Статус: проверено DHT
Скачан: торрент - 284 раз, раздача полностью - 1 раз
Размер: 22,19 GB
Оценка:  - (Голосов: 0)
Поблагодарили: 3
Поделиться ссылкой на эту раздачу с друзьями:
В контактеFacebookОдноклассникиTwitterLivejournalМой МирLiveinternet
 

 
Показать сообщения:    


Вы не можете начинать темы
Вы не можете отвечать на сообщения
Вы не можете редактировать свои сообщения
Вы не можете удалять свои сообщения
Вы не можете голосовать в опросах
Вы не можете прикреплять файлы к сообщениям
Вы можете скачивать файлы