Loading...
Error

Скачать Имитатор / Copycat (Джон Эмиел / Jon Amiel) [1995, Триллер, Криминал, Детектив, BDRip] [AVO] (А.Гаврилов) + [AVO] (В.Горчаков) торрент без регистрации

 
Статистика раздачи
Размер:  1,62 GB   |    Скачан:  104 раза
Сидов:  1  [  0 KB/s  ]  
 
Автор Сообщение

leon030982

[] 


Имитатор / Copycat



Страна: США
Жанр: Триллер, Криминал, Детектив
Год выпуска: 1995
Продолжительность: 02:03:05
Перевод #1: Авторский (одноголосый, закадровый) Гаврилов

Перевод #2: Авторский (одноголосый, закадровый) Горчаков
(отдельно)
Cубтитры: Нет

Режиссер: Джон Эмиел / Jon Amiel
В ролях: Сигурни Уивер, Холли Хантер, Дермот Малруни, Уильям МакНамара, Гарри Конник мл., Дж. Э. Фримен, Уилл Пэттон, Джон Ротмен, Шэннон О’Хёрли, Боб Грин и др.

Описание: 9 из 10 серийных убийц — это белые американцы в возрасте от 20 до 35 лет. В штате Флорида было потрачено 8 миллионов долларов, чтобы казнить серийного убийцу Теда Банди. Не лучше ли было предоставить его в распоряжение ученых, чтобы избежать появления новых «тедов банди» в будущем?» — задает с кафедры вопрос слушателям ученая-криминалист, эксперт с двадцатилетним стажем, доктор Хелен Хадсон.
Ответ она получает через несколько минут в туалете, где, повесив ее саму за шею так, чтобы мыски ног едва касались унитаза, маньяк на ее глазах убивает ее охранника. В результате перенесенного шока она 13 месяцев пребывает в состоянии панического страха, не выходя из квартиры, пока к ней не обращаются за помощью полицейские-напарники, красавец Рубен и симпатичная умница с колючим язычком М. Джей (так, инициалами ее называют коллеги).
Они ведут расследование серии убийств, совершаемых очередным маньяком. Маньяк, сумасшедший незаурядного ума, практически бросает вызов Хелен, начав эту «шахматную партию» в манере «бостонского душителя»…



Качество видео: BDRip
Автор: AngelOfTrue
Формат видео: AVI
Видео: 688x288 (2.39:1), 23.976 fps, XviD build 64, 1485 kbps avg, 0.31 bit/pixel
Аудио #1: 48 kHz, AC3 Dolby Digital, 2/0 (L,R) ch, 192 kbps avg | AVO (Гаврилов)
Аудио #2: 48 kHz, AC3 Dolby Digital, 2/0 (L,R) ch, 192 kbps avg | AVO (Горчаков) (отдельно)

Цитата:

за авторские дороги спасибо furria62 с форума е180

Приятного вам просмотра!

Format : AVI
Format/Info : Audio Video Interleave
File size : 1.45 GiB
Duration : 2h 3mn
Overall bit rate : 1 687 Kbps
Movie name : Imitator.1995.RUS.BDRip.XviD.AC3.-AngelOfTrue
Director : AngelOfTrue
Writing application : VirtualDubMod 1.5.10.3 | www.virtualdub-fr.org || (build 2550/release)
Writing library : VirtualDubMod build 2550/release
Video
ID : 0
Format : MPEG-4 Visual
Format profile : Advanced Simple@L5
Format settings, BVOP : 1
Format settings, QPel : No
Format settings, GMC : No warppoints
Format settings, Matrix : Custom
Codec ID : XVID
Codec ID/Hint : XviD
Duration : 2h 3mn
Bit rate : 1 485 Kbps
Width : 688 pixels
Height : 288 pixels
Display aspect ratio : 2.35:1
Frame rate : 23.976 fps
Color space : YUV
Chroma subsampling : 4:2:0
Bit depth : 8 bits
Scan type : Progressive
Compression mode : Lossy
Bits/(Pixel*Frame) : 0.313
Stream size : 1.28 GiB (88%)
Writing library : XviD 64
Audio
ID : 1
Format : AC-3
Format/Info : Audio Coding 3
Mode extension : CM (complete main)
Codec ID : 2000
Duration : 2h 3mn
Bit rate mode : Constant
Bit rate : 192 Kbps
Channel(s) : 2 channels
Channel positions : Front: L R
Sampling rate : 48.0 KHz
Bit depth : 16 bits
Compression mode : Lossy
Stream size : 169 MiB (11%)
Alignment : Split accross interleaves
Interleave, duration : 42 ms (1.00 video frame)
Interleave, preload duration : 500 ms



Скачать Имитатор.Copycat.(Джон.Эмиел.Jon.Amiel).[1995.Триллер.Криминал.Детектив.BDRip].[AVO].(А.Гаврилов).+.[AVO].(В.Горчаков).torrent без регистрации
Золото ЗОЛОТАЯ РАЗДАЧА! СКАЧАННОЕ НЕ ЗАСЧИТЫВАЕТСЯ! Золото
Дата: Зарегистрирован   [ Тип: внутренний ] Как тут cкачать?
MAGNET ссылка
MAGNET ссылка


Скачать .torrent

17 KB

Статус: проверено DHT
Скачан: торрент - 104 раз, раздача полностью - 2 раз
Размер: 1,62 GB
Оценка:  - (Голосов: 0)
Поблагодарили: 0
Поделиться ссылкой на эту раздачу с друзьями:
В контактеFacebookОдноклассникиTwitterLivejournalМой МирLiveinternet
 

 
Показать сообщения:    


Вы не можете начинать темы
Вы не можете отвечать на сообщения
Вы не можете редактировать свои сообщения
Вы не можете удалять свои сообщения
Вы не можете голосовать в опросах
Вы не можете прикреплять файлы к сообщениям
Вы можете скачивать файлы