Loading...
Error

Скачать Лучше звоните Солу / Better Call Saul (сезон 01) (Колин Бакси) [2015, драма, комедия, криминал, WEB-DL] [720p] 3х[MVO (Amedia, LostFilm, NewStudio)]+[DVO (Кубик в Кубе)]+[AVO (М.Чадов)]+[Eng]+[Rus, Eng] торрент без регистрации

 
Статистика раздачи
Размер:  33,87 GB   |    Скачан:  230 раз
Сидов:  5  [  0 KB/s  ]   Личеров:  5  [  0 KB/s  ]  
 
Автор Сообщение

МихаНЕзатор

[] 

Название: Лучше звоните Солу
Оригинальное название: Better Call Saul
Год выхода: 2015
Страна: США
Студия: High Bridge Productions, Crystal Diner Productions, Gran Via Productions
Продолжительность: 10 x ~ 46 мин.
Жанр: драма, криминал, ...
Режиссер: Адам Бернштейн, Лариса Кондрацки, Терри МакДонаф, ...

В ролях: Боб Оденкёрк, Джонатан Бэнкс, Ри Сихорн, Майкл МакКин, Патрик Фабиан, Майкл Мэндо, Эйлин Фогарти, Стив Ларесэ, Джули Энн Эмери, Керри Кондон, ...

Перевод:
Профессиональный (многоголосый, закадровый) LostFilm
Профессиональный (многоголосый, закадровый) «Кравец-рекордс» по заказу Amedia
Профессиональный (многоголосый, закадровый) NewStudio
Профессиональный (двухголосый, закадровый) Кубик в Кубе
Авторский (одноголосый, закадровый) Чадов Михаил
Субтитры

О фильме: История об испытаниях и невзгодах, которые приходится преодолеть Солу Гудману, адвокату по уголовным делам, в тот период, когда он пытается открыть свою собственную адвокатскую контору в Альбукерке, штат Нью-Мексико…



Кодек: x264
Качество: BDRip 720p
Видео: 1280x720 , ~6500 kbps, 23,976 fps
Аудио #1: AC-3, 6 ch, 384 kbps (Rus) - LostFilm
Аудио #2: AC-3, 6 ch, 384 kbps (Rus) - Кравец-рекордс
Аудио #3: AC-3, 6 ch, 384 kbps (Rus) - NewStudio
Аудио #4: AC-3, 6 ch, 384 kbps (Rus) - Кубик в Кубе
Аудио #5: AC-3, 6 ch, 640 kbps (Rus) - Чадов Михаил
Аудио #6: DTS, 6 ch, 1509 kbps (Eng)
Субтитры: Русские (форс.), Русские, Английские

АНОНСЫ ПОПУЛЯРНЫХ РАЗДАЧ


Торрент обновлён, улучшен видеоряд, собраны все переводы, добавлена 10-я серия!
видео от EPiC

Кравец-рекордс в 3,5 и 10 серии 2 канала.
В 1 и 2 серии LostFilm, NewStudio и Кубик в Кубе - 640 kbps
Общее
Уникальный идентификатор : 226625702048283854451550308630816301417 (0xAA7E85C76D2F6099AB79555F428F2169)
Полное имя : Better Call Saul E01 S01 2015 BDRip 720p Amedia LostFilm NewStudio Кубик в Кубе Чадов.mkv
Формат : Matroska
Версия формата : Version 2
Размер файла : 4,34 Гбайт
Продолжительность : 53 м.
Общий поток : 11,7 Мбит/сек
Дата кодирования : UTC 2016-02-28 21:39:51
Программа кодирования : mkvmerge v4.0.0 ('The Stars were mine') сборка от Jun 6 2010 16:18:42
Библиотека кодирования : libebml v1.0.0 + libmatroska v1.0.0

Видео
Идентификатор : 1
Формат : AVC
Формат/Информация : Advanced Video Codec
Профиль формата : High@L4.1
Параметр CABAC формата : Да
Параметр ReFrames формата : 9 кадров
Идентификатор кодека : V_MPEG4/ISO/AVC
Продолжительность : 53 м.
Битрейт : 7017 Кбит/сек
Ширина : 1280 пикселей
Высота : 720 пикселей
Соотношение сторон : 16:9
Режим частоты кадров : Постоянный
Частота кадров : 23,976 кадра/сек
Цветовое пространство : YUV
Субдискретизация насыщенности : 4:2:0
Битовая глубина : 8 бит
Тип развёртки : Прогрессивная
Бит/(Пиксели*Кадры) : 0.318
Размер потока : 2,60 Гбайт (60%)
Библиотека кодирования : x264 core 142 r2431+42 c69a006 tMod [8-bit@all X86_64]
Настройки программы : cabac=1 / ref=9 / deblock=1:-3:-3 / analyse=0x3:0x133 / me=umh / subme=11 / psy=1 / fade_compensate=0.00 / psy_rd=1.05:1.00 / mixed_ref=1 / me_range=32 / chroma_me=1 / trellis=2 / 8x8dct=1 / cqm=0 / deadzone=21,11 / fast_pskip=0 / chroma_qp_offset=-4 / threads=12 / lookahead_threads=2 / sliced_threads=0 / nr=0 / decimate=0 / interlaced=0 / bluray_compat=0 / constrained_intra=0 / fgo=0 / bframes=8 / b_pyramid=2 / b_adapt=2 / b_bias=0 / direct=3 / weightb=1 / open_gop=0 / weightp=2 / keyint=240 / keyint_min=23 / scenecut=40 / intra_refresh=0 / rc_lookahead=60 / rc=crf / mbtree=0 / crf=16.0000 / qcomp=0.60 / qpmin=0:0:0 / qpmax=69:69:69 / qpstep=4 / vbv_maxrate=40000 / vbv_bufsize=30000 / crf_max=0.0 / nal_hrd=none / filler=0 / ip_ratio=1.40 / pb_ratio=1.30 / aq=1:1.00 / aq-sensitivity=10.00 / aq-factor=1.00:1.00:1.00 / aq2=0 / aq3=0
Язык : English
Default : Нет
Forced : Нет

Аудио #1
Идентификатор : 2
Формат : AC-3
Формат/Информация : Audio Coding 3
Расширение режима : CM (complete main)
Параметр Endianness формата : Big
Идентификатор кодека : A_AC3
Продолжительность : 53 м.
Вид битрейта : Постоянный
Битрейт : 640 Кбит/сек
Каналы : 6 каналов
Расположение каналов : Front: L C R, Side: L R, LFE
Частота : 48,0 КГц
Метод сжатия : С потерями
Размер потока : 243 Мбайт (5%)
Заголовок : LostFilm
Язык : Russian
Default : Нет
Forced : Нет

Аудио #2
Идентификатор : 3
Формат : AC-3
Формат/Информация : Audio Coding 3
Расширение режима : CM (complete main)
Параметр Endianness формата : Big
Идентификатор кодека : A_AC3
Продолжительность : 53 м.
Вид битрейта : Постоянный
Битрейт : 384 Кбит/сек
Каналы : 6 каналов
Расположение каналов : Front: L C R, Side: L R, LFE
Частота : 48,0 КГц
Метод сжатия : С потерями
Размер потока : 146 Мбайт (3%)
Заголовок : Кравец-рекордс
Язык : Russian
Default : Нет
Forced : Нет

Аудио #3
Идентификатор : 4
Формат : AC-3
Формат/Информация : Audio Coding 3
Расширение режима : CM (complete main)
Параметр Endianness формата : Big
Идентификатор кодека : A_AC3
Продолжительность : 53 м.
Вид битрейта : Постоянный
Битрейт : 640 Кбит/сек
Каналы : 6 каналов
Расположение каналов : Front: L C R, Side: L R, LFE
Частота : 48,0 КГц
Метод сжатия : С потерями
Размер потока : 243 Мбайт (5%)
Заголовок : NewStudio
Язык : Russian
Default : Нет
Forced : Нет

Аудио #4
Идентификатор : 5
Формат : AC-3
Формат/Информация : Audio Coding 3
Расширение режима : CM (complete main)
Параметр Endianness формата : Big
Идентификатор кодека : A_AC3
Продолжительность : 53 м.
Вид битрейта : Постоянный
Битрейт : 640 Кбит/сек
Каналы : 6 каналов
Расположение каналов : Front: L C R, Side: L R, LFE
Частота : 48,0 КГц
Метод сжатия : С потерями
Размер потока : 243 Мбайт (5%)
Заголовок : Кубик в Кубе
Язык : Russian
Default : Нет
Forced : Нет

Аудио #5
Идентификатор : 6
Формат : AC-3
Формат/Информация : Audio Coding 3
Расширение режима : CM (complete main)
Параметр Endianness формата : Big
Идентификатор кодека : A_AC3
Продолжительность : 53 м.
Вид битрейта : Постоянный
Битрейт : 640 Кбит/сек
Каналы : 6 каналов
Расположение каналов : Front: L C R, Side: L R, LFE
Частота : 48,0 КГц
Метод сжатия : С потерями
Размер потока : 243 Мбайт (5%)
Заголовок : Михаил Чадов
Язык : Russian
Default : Нет
Forced : Нет

Аудио #6
Идентификатор : 7
Формат : DTS
Формат/Информация : Digital Theater Systems
Режим : 16
Параметр Endianness формата : Big
Идентификатор кодека : A_DTS
Продолжительность : 53 м.
Вид битрейта : Постоянный
Битрейт : 1509 Кбит/сек
Каналы : 6 каналов
Расположение каналов : Front: L C R, Side: L R, LFE
Частота : 48,0 КГц
Битовая глубина : 16 бит
Метод сжатия : С потерями
Размер потока : 573 Мбайт (13%)
Язык : English
Default : Нет
Forced : Нет

Текст #1
Идентификатор : 8
Формат : UTF-8
Идентификатор кодека : S_TEXT/UTF8
Идентификатор кодека/Информация : UTF-8 Plain Text
Язык : Russian
Default : Нет
Forced : Нет

Текст #2
Идентификатор : 9
Формат : UTF-8
Идентификатор кодека : S_TEXT/UTF8
Идентификатор кодека/Информация : UTF-8 Plain Text
Язык : English
Default : Нет
Forced : Нет



Скачать Лучше.звоните.Солу.Better.Call.Saul.(сезон.01).(Колин.Бакси).[2015.драма.комедия.криминал.WEB-DL].[720p].3х[MVO.(Amedia.LostFilm.NewStudio)]+[DVO.(Кубик.в.Кубе)]+[AVO.(М.Чадов)]+[Eng]+[Rus.Eng].torrent без регистрации
Золото ЗОЛОТАЯ РАЗДАЧА! СКАЧАННОЕ НЕ ЗАСЧИТЫВАЕТСЯ! Золото
Дата: Зарегистрирован   [ Тип: внешний ] Как тут cкачать?
MAGNET ссылка
MAGNET ссылка


Скачать .torrent

172 KB

Статус: проверено DHT
Скачан: торрент - 230 раз, раздача полностью - 10 раз
Размер: 33,87 GB
Оценка:  - (Голосов: 0)
Поблагодарили: 3
Поделиться ссылкой на эту раздачу с друзьями:
В контактеFacebookОдноклассникиTwitterLivejournalМой МирLiveinternet
 

 
Показать сообщения:    


Вы не можете начинать темы
Вы не можете отвечать на сообщения
Вы не можете редактировать свои сообщения
Вы не можете удалять свои сообщения
Вы не можете голосовать в опросах
Вы не можете прикреплять файлы к сообщениям
Вы можете скачивать файлы