Loading...
Error

Скачать Лучше звоните Солу / Better Call Saul (Колин Бакси, Адам Бернштейн, Винс Гиллиган) (Сезон 1, Серии 1-10 из 10) [2015, Драма, комедия, криминал , WEBDLRip] [MVO] [LostFilm] торрент без регистрации

 
Статистика раздачи
Размер:  9,62 GB   |    Скачан:  266 раз
Сидов:  1  [  0 KB/s  ]  
 
Автор Сообщение

Nikolai.Baranov

[] 






Лучше звоните Солу / Better Call Saul Сезон 1, Серия 1-10 из 10




Год выпуска: 2015
Выпущено: США, Primrose Hill Productions, Warner Bros. Television
Жанр: Драма, комедия, криминал
Продолжительность: 00:54:00
Сезон: 1
Серия: 1-10
Количество серий в сезоне: 10
Озвучка:Профессиональная многоголосая закадровая(LostFilm_TV)
Субтитры: НЕТ



Режиссер: Колин Бакси, Адам Бернштейн, Винс Гиллиган

Сценаристы:Питер Гулд, Винс Гиллиган

В ролях:: Боб Оденкерк (Джимми Макгил/Сол Гудман), Ри Сихорн (Ким Векслер), Патрик Фабиан (Говард Хэмлин), Майкл МакКин (Чак Макгил), Джонатан Бэнкс (Майк Эрмантраут), Майкл Мэндо (Начо Варга), Майкл Бофшевер (мистер Пинкман)

«Лучше звоните Солу» — спин-офф и одновременно приквел культового сериала «Во все тяжкие» (Breaking Bad), являющийся абсолютно самостоятельным по стилю, сюжету и настроению проектом. С оригиналом его роднит одно очень важное качество — высочайший уровень подачи материала. В своем новом телешоу Винс Гиллиган и Питер Гулд приготовили для зрителей увлекательную историю о том, как мелкий и не очень удачливый юрист Джимми Макгил (Боб Оденкерк) стал Солом Гудманом, успешным защитником самых отъявленных подонков (и не только) Нью-Мексико. «Лучше звоните Солу» также порадует вас целой галереей запоминающихся персонажей, лихо закрученными сюжетами и неожиданными встречами со знакомыми героями из вселенной Хайзенберга.
Сюжет:2002 год, штат Нью-Мексико. У адвоката Джимми Макгила дела идут очень плохо: ни денег, ни клиентов, ни перспектив. Чтобы хоть как-то сводить концы с концами, он вынужден защищать всяких сомнительных нарушителей закона по заказу государства, тогда как крупная рыба все время срывается с его крючка. А еще у Джимми есть старший брат Чак Макгил, попавший в беду и тоже требующий внимания и профессиональной помощи. Но даже Чак не желает прислушиваться к рекомендациям брата и все делает по-своему. Более того, он предлагает Джимми сменить имя, чтобы тот мог заработать авторитет с нуля и продвинуть свою юридическую контору, не полагаясь на репутацию их общей фамилии. Загнанный в угол адвокат начинает подумывать о том, чтобы задействовать нетрадиционные способы поиска клиентов. В его голове рождается хитрая комбинация, которую он решает реализовать с помощью двух юных и жадных до денег скейтеров, но неожиданно все выходит из-под контроля...




Качество : WEB-DLRip
Формат: AVI
Видео кодек: DivX5
Видео: 2323Кбит/сек,720х406(16.9),в 23.976кадр/сек,MPEG4 Visual(DivX5)
Аудио кодек: AC3
Аудио Dolby Digital 5.1: Русский (AC3, 6 ch,512 Кбит/с), Aнглийский (AC3, 6 ch, 512 Кбит/с)


Звуковая дорожка сделана путем наложения чистого голоса озвучивателей на центральный канал оригинальной дорожки. Качество идентично звуковой дорожке.



01 Уно (Uno)
02 Михо (Mijo)
03 Начо (Nacho)
04 Герой (Hero)
05 Альпийский пастушок (Alpine Shepherd Boy)
06 Легаш (Five-O)
07 Бинго (Bingo)
08 Рико (Rico)
09 Пименто (Pimento)
10 Марко (Marco)



General
Полное имя : D:\ЛУЧШЕ ЗВОНИТЕ СОЛУ\BETTER_CALL_SAUL_2015_S01_RUS_ENG_[LostFilm]_[AVI_DivX5_DD5.1]_Nikolai.Baranov_WEB-DLRip\BETTER_CALL_SAUL_2015_S01E01_RUS_ENG_[LostFilm]_[AVI_DivX5_DD5.1]_Nikolai.Baranov_WEB-DLRip.divx
Формат : AVI
Формат/Информация : Audio Video Interleave
Размер файла : 1.25 GiB
Продолжительность : 53mn 12s
Общий поток : 3 361 Kbps

Video
Идентификатор : 0
Формат : MPEG-4 Visual
Параметр BVOP формата : 1
Параметр QPel формата : No
Параметр GMC формата : No warppoints
Параметр матрицы формата : Default (H.263)
Режим смешивания : Packed bitstream
Идентификатор кодека : DX50
Идентификатор кодека/Подсказка : DivX 5
Продолжительность : 53mn 12s
Битрейт : 2 323 Kbps
Ширина : 720 pixels
Высота : 406 pixels
Соотношение сторон : 16:9
Частота кадров : 23.976 fps
Цветовое пространство : YUV
Субдискретизация насыщенности : 4:2:0
Битовая глубина : 8 bits
Тип развёртки : Progressive
Метод сжатия : Lossy
Бит/(Пиксели*Кадры) : 0.331
Размер потока : 884 MiB (69%)
Заголовок : Video
Библиотека кодирования : DivX 2682

Audio #1
Идентификатор : 1
Формат : AC-3
Формат/Информация : Audio Coding 3
Расширение режима : CM (complete main)
Параметр Endianness формата : Big
Идентификатор кодека : 2000
Продолжительность : 53mn 12s
Вид битрейта : Constant
Битрейт : 512 Kbps
Каналы : 6 channels
Расположение каналов : Front: L C R, Side: L R, LFE
Частота : 48.0 KHz
Битовая глубина : 16 bits
Метод сжатия : Lossy
Размер потока : 195 MiB (15%)
Выравнивание : Split accross interleaves
Продолжительность промежутка : 42 ms (1.00 video frame)
Время предзагрузки промежутка : 500 ms
Заголовок : Audio - en-US01

Audio #2
Идентификатор : 2
Формат : AC-3
Формат/Информация : Audio Coding 3
Расширение режима : CM (complete main)
Параметр Endianness формата : Big
Идентификатор кодека : 2000
Продолжительность : 53mn 12s
Вид битрейта : Constant
Битрейт : 512 Kbps
Каналы : 6 channels
Расположение каналов : Front: L C R, Side: L R, LFE
Частота : 48.0 KHz
Битовая глубина : 16 bits
Метод сжатия : Lossy
Размер потока : 195 MiB (15%)
Выравнивание : Split accross interleaves
Продолжительность промежутка : 42 ms (1.00 video frame)
Время предзагрузки промежутка : 500 ms
Заголовок : Audio - en-US01







1. Открыть торрент
2. Снять галки с тех файлов торрента, которые мы не хотим закачивать. Оставляем только на нужных нам файлах (файле).
3. Нажать О.К.

В клиенте utorrent

Инструкция

1) Открыть торрент


2) Снять галки с тех файлов торрента, которые мы не хотим закачивать:

* либо вручную, снимая с каждого файла галку( скрин №1)
* либо, нажав кнопку "Снять метки (Select None)", сняв сразу со всех файлов(скрин №2)
№1

№2

Оставляем только на нужных нам файлах (файле).

3)Нажать О.К






Внимание!!! 10.04. 2015. РАЗДАЧА ОБНОВЛЕНА.ФИНАЛ СЕЗОНА. ОБНОВИТЕ ТОРЕНТ ФАЙЛ.ПРИЯТНОГО ПРОСМОТРА .

Релиз от: Nikolai.Baranov










Скачать Лучше.звоните.Солу.Better.Call.Saul.(Колин.Бакси.Адам.Бернштейн.Винс.Гиллиган).(Сезон.1.Серии.1-10.из.10).[2015.Драма.комедия.криминал.WEBDLRip].[MVO].[LostFilm].torrent без регистрации
Золото ЗОЛОТАЯ РАЗДАЧА! СКАЧАННОЕ НЕ ЗАСЧИТЫВАЕТСЯ! Золото
Дата: Зарегистрирован   [ Тип: внутренний ] Как тут cкачать?
MAGNET ссылка
MAGNET ссылка


Скачать .torrent

28 KB

Статус: проверено DHT
Скачан: торрент - 266 раз, раздача полностью - 3 раз
Размер: 9,62 GB
Оценка:  5 (Голосов: 1)
Поблагодарили: 3
Поделиться ссылкой на эту раздачу с друзьями:
В контактеFacebookОдноклассникиTwitterLivejournalМой МирLiveinternet
 

 
Показать сообщения:    


Вы не можете начинать темы
Вы не можете отвечать на сообщения
Вы не можете редактировать свои сообщения
Вы не можете удалять свои сообщения
Вы не можете голосовать в опросах
Вы не можете прикреплять файлы к сообщениям
Вы можете скачивать файлы