Loading...
Error

Скачать Фортитьюд / Fortitude (сезон 01) (Сэм Миллер и др.) [2015, драма, триллер, детектив, WEB-DL] [1080p] [MVO (Paradox, AlexFilm)]+[DVO (Victory-Films)]+[Eng] торрент без регистрации

 
Статистика раздачи
Размер:  22,74 GB   |    Скачан:  134 раза
Сидов:  1  [  0 KB/s  ]  
 
Автор Сообщение

МихаНЕзатор

[] 

Информация о фильме
Название: Фортитьюд
Оригинальное название: Fortitude
Год выпуска: 2015
Жанр: драма, триллер, детектив
Режиссер: Сэм Миллер, Хетти Макдональд, Ник Харран

В ролях: Кристофер Экклстон, Стэнли Туччи, Сиенна Гиллори, Майкл Гэмбон, Джессика Рэйн, Люк Тредэуэй, Вероника Эчеги, Даррен Бойд, Джонни Харрис, София Гробель, Александра Моэн, Ричард Дормер, Аарон МакКаскер, Фиби Николлс, Чипо Чанг, Майкл Обиора, Николас Пиннок, Бьедн Хлюнюр Харальдссон, Джессика Ганнинг

О фильме Fortitude – небольшой городок в Арктике, из-за полного отсутствия преступности считающийся самым безопасным местом на земле. Но вот однажды в городе находят тело убитого британского ученого (Кристофер Экклстон). Шериф Андерсон (Ричард Домер) и командированный в город детектив полиции Милтон Колдуэлл (Стенли Туччи) приступают к расследованию. И чем дальше заходит расследование, тем шире становится список подозреваемых, а поведение шерифа и детектива – все более странным и заставляющим их все меньше доверять друг другу.




Страна: Великобритания
Студия: Fifty Fathoms Productions, Sky Atlantic, Tiger Aspect Production
Продолжительность: ~ 00:48:00
Перевод: Профессиональный (многоголосый, закадровый) Paradox, AlexFilm, любительский двухголосый Victory-Films

Файл
Кодек: MKV (H.264)
Качество: WEB-DL (1080p)
Видео: MPEG-4 AVC, ~ 5600 Кбит/с, 1910x1070
Звук: Русский (AC3, 2 ch, 192 Кбит/с), английский (AС3, 2 ch, 384 Кбит/с)

АНОНСЫ ПОПУЛЯРНЫХ РАЗДАЧ


Торрент обновлён, добавлена 2 перевода, и последние серии!

Общее
Уникальный идентификатор : 231566163292069618626786312409886183981 (0xAE36055317189428BD049B2B0787522D)
Полное имя : H:\Сериалы\Fortitude.S01.2015.1080p.WEB-DL.BS.Sub.Eng.Rus.All\Fortitude.S01E01.1080p.WEB-DL.AAC2.0.H.264-BS.Sub.Eng.Rus.AlexFilm.VictoryFilms.Paradox.mkv
Формат : Matroska
Версия формата : Version 4 / Version 2
Размер файла : 2,02 Гбайт
Продолжительность : 47 м.
Общий поток : 6036 Кбит/сек
Дата кодирования : UTC 2015-03-17 20:06:47
Программа кодирования : mkvmerge v7.5.0 ('Glass Culture') 64bit built on Jan 4 2015 16:48:44
Библиотека кодирования : libebml v1.3.1 + libmatroska v1.4.2
_STATISTICS_WRITING_APP : mkvmerge v7.5.0 ('Glass Culture') 64bit built on Jan 4 2015 16:48:44
_STATISTICS_WRITING_DATE_UTC : 2015-03-17 20:06:47
_STATISTICS_TAGS : BPS DURATION NUMBER_OF_FRAMES NUMBER_OF_BYTES
DURATION : 00:47:42.211000000
NUMBER_OF_FRAMES : 632
NUMBER_OF_BYTES : 29123

Видео
Идентификатор : 1
Формат : AVC
Формат/Информация : Advanced Video Codec
Профиль формата : High@L4.0
Параметр CABAC формата : Да
Параметр ReFrames формата : 4 кадра
Идентификатор кодека : V_MPEG4/ISO/AVC
Продолжительность : 47 м.
Ширина : 1910 пикселей
Высота : 1070 пикселей
Соотношение сторон : 16:9
Режим частоты кадров : Постоянный
Частота кадров : 25,000 кадров/сек
Цветовое пространство : YUV
Субдискретизация насыщенности : 4:2:0
Битовая глубина : 8 бит
Тип развёртки : Прогрессивная
Заголовок : Fortitude.S01E01.1080p.WEB-DL
Язык : English
Default : Да
Forced : Нет
Основные цвета : BT.709
Характеристики трансфера : BT.709
Коэффициенты матрицы : BT.709
colour_range : Limited

Аудио #1
Идентификатор : 2
Формат : AAC
Формат/Информация : Advanced Audio Codec
Профиль формата : LC
Идентификатор кодека : A_AAC
Продолжительность : 47 м.
Каналы : 2 канала
Расположение каналов : Front: L R
Частота : 48,0 КГц
Метод сжатия : С потерями
Заголовок : Original
Язык : English
Default : Да
Forced : Нет

Аудио #2
Идентификатор : 3
Формат : AC-3
Формат/Информация : Audio Coding 3
Расширение режима : CM (complete main)
Параметр Endianness формата : Big
Идентификатор кодека : A_AC3
Продолжительность : 47 м.
Вид битрейта : Постоянный
Битрейт : 192 Кбит/сек
Каналы : 2 канала
Расположение каналов : Front: L R
Частота : 48,0 КГц
Битовая глубина : 16 бит
Метод сжатия : С потерями
Размер потока : 65,7 Мбайт (3%)
Заголовок : AlexFilm
Язык : Russian
Default : Нет
Forced : Нет

Аудио #3
Идентификатор : 4
Формат : AC-3
Формат/Информация : Audio Coding 3
Расширение режима : CM (complete main)
Параметр Endianness формата : Big
Идентификатор кодека : A_AC3
Продолжительность : 47 м.
Вид битрейта : Постоянный
Битрейт : 192 Кбит/сек
Каналы : 2 канала
Расположение каналов : Front: L R
Частота : 48,0 КГц
Битовая глубина : 16 бит
Метод сжатия : С потерями
Размер потока : 65,7 Мбайт (3%)
Заголовок : VictoryFilms
Язык : Russian
Default : Нет
Forced : Нет

Аудио #4
Идентификатор : 5
Формат : AC-3
Формат/Информация : Audio Coding 3
Расширение режима : CM (complete main)
Параметр Endianness формата : Big
Идентификатор кодека : A_AC3
Продолжительность : 47 м.
Вид битрейта : Постоянный
Битрейт : 192 Кбит/сек
Каналы : 2 канала
Расположение каналов : Front: L R
Частота : 48,0 КГц
Битовая глубина : 16 бит
Метод сжатия : С потерями
Размер потока : 65,7 Мбайт (3%)
Заголовок : Paradox
Язык : Russian
Default : Нет
Forced : Нет

Текст #1
Идентификатор : 6
Формат : UTF-8
Идентификатор кодека : S_TEXT/UTF8
Идентификатор кодека/Информация : UTF-8 Plain Text
Заголовок : Eng CC
Язык : English
Default : Нет
Forced : Нет

Текст #2
Идентификатор : 7
Формат : UTF-8
Идентификатор кодека : S_TEXT/UTF8
Идентификатор кодека/Информация : UTF-8 Plain Text
Заголовок : Revisted
Язык : Russian
Default : Да
Forced : Нет



Скачать Фортитьюд.Fortitude.(сезон.01).(Сэм.Миллер.и.др.).[2015.драма.триллер.детектив.WEB-DL].[1080p].[MVO.(Paradox.AlexFilm)]+[DVO.(Victory-Films)]+[Eng].torrent без регистрации
Золото ЗОЛОТАЯ РАЗДАЧА! СКАЧАННОЕ НЕ ЗАСЧИТЫВАЕТСЯ! Золото
Дата: Зарегистрирован   [ Тип: внутренний ] Как тут cкачать?
MAGNET ссылка
MAGNET ссылка


Скачать .torrent

59 KB

Статус: проверено DHT
Скачан: торрент - 134 раз, раздача полностью - 2 раз
Размер: 22,74 GB
Оценка:  - (Голосов: 0)
Поблагодарили: 1
Поделиться ссылкой на эту раздачу с друзьями:
В контактеFacebookОдноклассникиTwitterLivejournalМой МирLiveinternet
 

 
Показать сообщения:    


Вы не можете начинать темы
Вы не можете отвечать на сообщения
Вы не можете редактировать свои сообщения
Вы не можете удалять свои сообщения
Вы не можете голосовать в опросах
Вы не можете прикреплять файлы к сообщениям
Вы можете скачивать файлы