Loading...
Error

Скачать Гуляка / Le cavaleur (Филипп де Брока) [1979, комедия, DVDRip] [MVO]+[Оригинал] торрент без регистрации

 
Статистика раздачи
Размер:  1,59 GB   |    Скачан:  102 раза
Сидов:  1  [  0 KB/s  ]  
 
Автор Сообщение

Marsianka

[] 

Гуляка / Le cavaleur
Страна: Франция
Год выпуска: 1979
Жанр: комедия
Продолжительность: 01:37:16
Перевод: Профессиональный (многоголосый закадровый)
Оригинальная аудиодорожка: французский
Cубтитры: нет

Режиссер: Филипп де Брока / Philippe De Broca

В ролях: Жан Рошфор / Jean Rochefort, Николь Гарсиа / Nicole Garcia, Жан-Клод Вентура / Jean-Claude Ventura, Анни Жирардо / Annie Girardot, Люсьенн Легран / Lucienne Legrand, Даниель Даррье / Danielle Darrieux, Катрин Альрик / Catherine Alric, Лиля Кедрова / Lila Kedrova

Описание: Несмотря на свой возраст, стареющий ловелас Эдуар пользуется успехом у женщин. Бесконечная вереница сменяющих друг друга увлечений, концертов, квинтетов, дуэтов и маленьких ночных репетиций. Подобный образ жизни не оставляет Эдуару времени на то, чтобы уделить внимание жене Мари-Франс и маленьким дочкам. Неудивительно, что устав от такой жизни, Мари-Франс решает в один прекрасный момент оставить своего непутевого супруга...



Качество: DVDRip [DVD5]
Формат: AVI
Видео кодек: XviD
Аудио кодек: AC3
Видео: 656x400 (1.64:1), 25 fps, XviD build 73 ~1942 kbps avg, 0.30 bit/pixel
Аудио #1: 48 kHz, AC3 Dolby Digital, 2/0 (L,R) ch, ~192 kbps | MVO
Аудио #2: 48 kHz, AC3 Dolby Digital, 2/0 (L,R) ch, ~192 kbps | Original (отдельно)

Раздача от:

D:Мои рипыLe.cavaleur.1979.dvdrip.dexter_lexLe.cavaleur.1979.dvdrip.dexter_lex.avi
General
Complete name : D:Мои рипыLe.cavaleur.1979.dvdrip.dexter_lexLe.cavaleur.1979.dvdrip.dexter_lex.avi
Format : AVI
Format/Info : Audio Video Interleave
File size : 1.46 GiB
Duration : 1h 37mn
Overall bit rate : 2 145 Kbps
Movie name : Le.cavaleur.1979.dvdrip.dexter_lex
Director : dexter lex
Writing application : VirtualDubMod 1.5.10.3 | www.virtualdub-fr.org || (build 2550/release)
Video #0
ID : 0
Format : MPEG-4 Visual
Format profile : Advanced Simple@L5
Format settings, BVOP : 1
Format settings, QPel : No
Format settings, GMC : No warppoints
Format settings, Matrix : Custom
Codec ID : XVID
Codec ID/Hint : XviD
Duration : 1h 37mn
Bit rate : 1 943 Kbps
Width : 656 pixels
Height : 400 pixels
Display aspect ratio : 1.640
Frame rate : 25.000 fps
Color space : YUV
Chroma subsampling : 4:2:0
Bit depth : 8 bits
Scan type : Progressive
Compression mode : Lossy
Bits/(Pixel*Frame) : 0.296
Stream size : 1.32 GiB (91%)
Writing library : XviD 73
Audio #1
ID : 1
Format : AC-3
Format/Info : Audio Coding 3
Mode extension : CM (complete main)
Codec ID : 2000
Duration : 1h 37mn
Bit rate mode : Constant
Bit rate : 192 Kbps
Channel(s) : 2 channels
Channel positions : Front: L R
Sampling rate : 48.0 KHz
Bit depth : 16 bits
Compression mode : Lossy
Stream size : 134 MiB (9%)
Alignment : Split accross interleaves
Interleave, duration : 40 ms (1.00 video frame)
Interleave, preload duration : 500 ms



Скачать Гуляка.Le.cavaleur.(Филипп.де.Брока).[1979.комедия.DVDRip].[MVO]+[Оригинал].torrent без регистрации
Золото ЗОЛОТАЯ РАЗДАЧА! СКАЧАННОЕ НЕ ЗАСЧИТЫВАЕТСЯ! Золото
Дата: Зарегистрирован   [ Тип: внутренний ] Как тут cкачать?
MAGNET ссылка
MAGNET ссылка


Скачать .torrent

17 KB

Статус: проверено DHT
Скачан: торрент - 102 раз, раздача полностью - 2 раз
Размер: 1,59 GB
Оценка:  - (Голосов: 0)
Поблагодарили: 1
Поделиться ссылкой на эту раздачу с друзьями:
В контактеFacebookОдноклассникиTwitterLivejournalМой МирLiveinternet
 

 
Показать сообщения:    


Вы не можете начинать темы
Вы не можете отвечать на сообщения
Вы не можете редактировать свои сообщения
Вы не можете удалять свои сообщения
Вы не можете голосовать в опросах
Вы не можете прикреплять файлы к сообщениям
Вы можете скачивать файлы