Loading...
Error

Скачать Я знаю, что мое имя Стивен / I Know My First Name Is Steven (Лэрри Илайкэнн) [1989, драма, криминал, DVDRip-AVC] [MVO] торрент без регистрации

 
Статистика раздачи
Размер:  3,57 GB   |    Скачан:  110 раз
Сидов:  1  [  0 KB/s  ]  
 
Автор Сообщение

Marsianka

[] 

Информация о фильме
Название: Я знаю, что мое имя Стивен
Оригинальное название: I Know My First Name Is Steven
Год выхода: 1989
Жанр: драма, криминал
Режиссер: Лэрри Илайкэнн / Larry Elikann
В ролях: Корин Немец (Corin Nemec), Люк Эдвардс (Luke Edwards), Синди Пикетт (Cindy Pickett), Джон Эштон (John Ashton), Прюит Тэйлор Винс (Pruitt Taylor Vince), Рей Уолстон (Ray Walston), Грегг Генри (Gregg Henry), Джим Хейни (Jim Haynie), Барбара Тарбак (Barbara Tarbuck)

О фильме:
Телевизионная экранизация реальной истории Стивена Стайнера, который в возрасте семи лет был похищен Кеннетом Парнеллом — мужчиной, выдававшим себя за опекуна мальчика и подвергавшим его сексуальной эксплуатации на протяжении нескольких следующих лет.

В 14-летнем возрасте Стивен вместе с новым, похищенным Парнеллом мальчиком, бежит от него и возвращается к своей семье. Пытаясь приспособиться к семье, о которой он уже почти ничего не помнит, убеждая себя, что родители никогда не забывали о нем, выступая в непростом судебном разбирательстве, Стивен сталкивается со сложными дилеммами в новой для него жизни.


Фильм основан за записях журналиста Майка Экхолса, который расследовал историю похищения Стивена и интервьюировал Стивена Стайнера и Кеннета Парнелла. После премьеры фильма в 1989 году Майк Экхолс опубликовал в 1991 году одноименную книгу.



Страна: США
Студия: Lorimar Television, Andrew Adelson Company
Продолжительность: 01:32:18.533 (1 серия) + 01:32:31.004 (2 серия) ~ 185 мин.
Перевод: Профессиональный (многоголосый закадровый) Телеканал Россия

Файл
Кодек: h.264
Качество: DVDRip-AVC
Видео: 640x480 (4:3), 23.976 fps, AVC, ~2410 Kbps, 0.327 bits/pixel
Русский, 48.0 KHz, AC3, 2 ch, 160 Kbps (двойное моно)
Английский, 48.0 KHz, AC3, 2 ch, 192 Kbps
Субтитры: нет
1 серия
Общее
Уникальный идентификатор : 197873642738107886996477368240289200911 (0x94DD13CEE04F09CAB9350A6FFF4DBB0F)
Полное имя : G:FILMSJa_znaju_chto_moe_imja_Stiven.1989Ja_znaju_chto_moe_imja_Stiven.1_chast.1989.DVDRip-AVC.mkv
Формат : Matroska
Версия формата : Version 4 / Version 2
Размер файла : 1,78 Гбайт
Продолжительность : 1 ч. 32 м.
Общий поток : 2763 Кбит/сек
Дата кодирования : UTC 2015-02-15 14:43:22
Программа кодирования : mkvmerge v7.6.0 ('Garden of Dreams') 64bit built on Feb 8 2015 13:04:34
Библиотека кодирования : libebml v1.3.1 + libmatroska v1.4.2
_STATISTICS_WRITING_APP : mkvmerge v7.6.0 ('Garden of Dreams') 64bit built on Feb 8 2015 13:04:34
_STATISTICS_WRITING_DATE_UTC : 2015-02-15 14:43:22
_STATISTICS_TAGS : BPS DURATION NUMBER_OF_FRAMES NUMBER_OF_BYTES
DURATION : 01:32:18.464000000
NUMBER_OF_FRAMES : 173077
NUMBER_OF_BYTES : 132923136

Видео
Идентификатор : 1
Формат : AVC
Формат/Информация : Advanced Video Codec
Профиль формата : High@L4.1
Параметр CABAC формата : Да
Параметр ReFrames формата : 11 кадров
Идентификатор кодека : V_MPEG4/ISO/AVC
Продолжительность : 1 ч. 32 м.
Битрейт : 2410 Кбит/сек
Ширина : 640 пикселей
Высота : 480 пикселей
Соотношение сторон : 4:3
Режим частоты кадров : Постоянный
Частота кадров : 23,976 кадра/сек
Цветовое пространство : YUV
Субдискретизация насыщенности : 4:2:0
Битовая глубина : 8 бит
Тип развёртки : Прогрессивная
Бит/(Пиксели*Кадры) : 0.327
Размер потока : 1,52 Гбайт (85%)
Библиотека кодирования : x264 core 142 r2431 ac76440
Настройки программы : cabac=1 / ref=11 / deblock=1:0:0 / analyse=0x3:0x133 / me=umh / subme=11 / psy=1 / psy_rd=1.10:0.15 / mixed_ref=1 / me_range=32 / chroma_me=1 / trellis=2 / 8x8dct=1 / cqm=0 / deadzone=21,11 / fast_pskip=0 / chroma_qp_offset=-3 / threads=8 / lookahead_threads=1 / sliced_threads=0 / nr=0 / decimate=0 / interlaced=0 / bluray_compat=0 / constrained_intra=0 / bframes=9 / b_pyramid=2 / b_adapt=2 / b_bias=0 / direct=3 / weightb=1 / open_gop=0 / weightp=2 / keyint=240 / keyint_min=23 / scenecut=40 / intra_refresh=0 / rc_lookahead=60 / rc=2pass / mbtree=0 / bitrate=2410 / ratetol=1.0 / qcomp=0.60 / qpmin=0 / qpmax=69 / qpstep=4 / cplxblur=20.0 / qblur=0.5 / vbv_maxrate=40000 / vbv_bufsize=50000 / nal_hrd=none / filler=0 / ip_ratio=1.40 / pb_ratio=1.30 / aq=1:1.00
Default : Нет
Forced : Нет
Коэффициенты матрицы : BT.601
colour_range : Limited
DURATION : 01:32:18.533000000
NUMBER_OF_FRAMES : 132792
NUMBER_OF_BYTES : 1668113005
_STATISTICS_WRITING_APP : mkvmerge v7.6.0 ('Garden of Dreams') 64bit built on Feb 8 2015 13:04:34
_STATISTICS_WRITING_DATE_UTC : 2015-02-15 14:43:22
_STATISTICS_TAGS : BPS DURATION NUMBER_OF_FRAMES NUMBER_OF_BYTES

Аудио #1
Идентификатор : 2
Формат : AC-3
Формат/Информация : Audio Coding 3
Расширение режима : CM (complete main)
Параметр Endianness формата : Big
Идентификатор кодека : A_AC3
Продолжительность : 1 ч. 32 м.
Вид битрейта : Постоянный
Битрейт : 160 Кбит/сек
Каналы : 2 канала
Расположение каналов : Front: L R
Частота : 48,0 КГц
Битовая глубина : 16 бит
Метод сжатия : С потерями
Размер потока : 106 Мбайт (6%)
Язык : Russian
Default : Да
Forced : Нет

Аудио #2
Идентификатор : 3
Формат : AC-3
Формат/Информация : Audio Coding 3
Расширение режима : CM (complete main)
Параметр Endianness формата : Big
Идентификатор кодека : A_AC3
Продолжительность : 1 ч. 32 м.
Вид битрейта : Постоянный
Битрейт : 192 Кбит/сек
Каналы : 2 канала
Расположение каналов : Front: L R
Частота : 48,0 КГц
Битовая глубина : 16 бит
Метод сжатия : С потерями
Размер потока : 127 Мбайт (7%)
Язык : English
Default : Нет
Forced : Нет

Меню
00:00:00.000 : en:Chapter 01
00:10:00.500 : en:Chapter 02
00:20:00.000 : en:Chapter 03
00:30:00.000 : en:Chapter 04
00:40:00.500 : en:Chapter 05
00:50:00.000 : en:Chapter 06
01:00:00.500 : en:Chapter 07
01:10:00.000 : en:Chapter 08
01:20:00.000 : en:Chapter 09
01:30:00.500 : en:Chapter 10

2 серия
Общее
Уникальный идентификатор : 218496155434063882630013690490621735660 (0xA460D42F688E82468D3AAED560A732EC)
Полное имя : G:FILMSJa_znaju_chto_moe_imja_Stiven.1989Ja_znaju_chto_moe_imja_Stiven.2_chast.1989.DVDRip-AVC.mkv
Формат : Matroska
Версия формата : Version 4 / Version 2
Размер файла : 1,79 Гбайт
Продолжительность : 1 ч. 32 м.
Общий поток : 2763 Кбит/сек
Дата кодирования : UTC 2015-02-15 14:47:33
Программа кодирования : mkvmerge v7.6.0 ('Garden of Dreams') 64bit built on Feb 8 2015 13:04:34
Библиотека кодирования : libebml v1.3.1 + libmatroska v1.4.2
_STATISTICS_WRITING_APP : mkvmerge v7.6.0 ('Garden of Dreams') 64bit built on Feb 8 2015 13:04:34
_STATISTICS_WRITING_DATE_UTC : 2015-02-15 14:47:33
_STATISTICS_TAGS : BPS DURATION NUMBER_OF_FRAMES NUMBER_OF_BYTES
DURATION : 01:32:30.912000000
NUMBER_OF_FRAMES : 173466
NUMBER_OF_BYTES : 133221888

Видео
Идентификатор : 1
Формат : AVC
Формат/Информация : Advanced Video Codec
Профиль формата : High@L4.1
Параметр CABAC формата : Да
Параметр ReFrames формата : 11 кадров
Идентификатор кодека : V_MPEG4/ISO/AVC
Продолжительность : 1 ч. 32 м.
Битрейт : 2410 Кбит/сек
Ширина : 640 пикселей
Высота : 480 пикселей
Соотношение сторон : 4:3
Режим частоты кадров : Постоянный
Частота кадров : 23,976 кадра/сек
Цветовое пространство : YUV
Субдискретизация насыщенности : 4:2:0
Битовая глубина : 8 бит
Тип развёртки : Прогрессивная
Бит/(Пиксели*Кадры) : 0.327
Размер потока : 1,52 Гбайт (85%)
Библиотека кодирования : x264 core 142 r2431 ac76440
Настройки программы : cabac=1 / ref=11 / deblock=1:0:0 / analyse=0x3:0x133 / me=umh / subme=11 / psy=1 / psy_rd=1.10:0.15 / mixed_ref=1 / me_range=32 / chroma_me=1 / trellis=2 / 8x8dct=1 / cqm=0 / deadzone=21,11 / fast_pskip=0 / chroma_qp_offset=-3 / threads=8 / lookahead_threads=1 / sliced_threads=0 / nr=0 / decimate=0 / interlaced=0 / bluray_compat=0 / constrained_intra=0 / bframes=9 / b_pyramid=2 / b_adapt=2 / b_bias=0 / direct=3 / weightb=1 / open_gop=0 / weightp=2 / keyint=240 / keyint_min=23 / scenecut=40 / intra_refresh=0 / rc_lookahead=60 / rc=2pass / mbtree=0 / bitrate=2410 / ratetol=1.0 / qcomp=0.60 / qpmin=0 / qpmax=69 / qpstep=4 / cplxblur=20.0 / qblur=0.5 / vbv_maxrate=40000 / vbv_bufsize=50000 / nal_hrd=none / filler=0 / ip_ratio=1.40 / pb_ratio=1.30 / aq=1:1.00
Default : Нет
Forced : Нет
Коэффициенты матрицы : BT.601
colour_range : Limited
DURATION : 01:32:31.004000000
NUMBER_OF_FRAMES : 133091
NUMBER_OF_BYTES : 1671471292
_STATISTICS_WRITING_APP : mkvmerge v7.6.0 ('Garden of Dreams') 64bit built on Feb 8 2015 13:04:34
_STATISTICS_WRITING_DATE_UTC : 2015-02-15 14:47:33
_STATISTICS_TAGS : BPS DURATION NUMBER_OF_FRAMES NUMBER_OF_BYTES

Аудио #1
Идентификатор : 2
Формат : AC-3
Формат/Информация : Audio Coding 3
Расширение режима : CM (complete main)
Параметр Endianness формата : Big
Идентификатор кодека : A_AC3
Продолжительность : 1 ч. 32 м.
Вид битрейта : Постоянный
Битрейт : 160 Кбит/сек
Каналы : 2 канала
Расположение каналов : Front: L R
Частота : 48,0 КГц
Битовая глубина : 16 бит
Метод сжатия : С потерями
Размер потока : 106 Мбайт (6%)
Язык : Russian
Default : Да
Forced : Нет

Аудио #2
Идентификатор : 3
Формат : AC-3
Формат/Информация : Audio Coding 3
Расширение режима : CM (complete main)
Параметр Endianness формата : Big
Идентификатор кодека : A_AC3
Продолжительность : 1 ч. 32 м.
Вид битрейта : Постоянный
Битрейт : 192 Кбит/сек
Каналы : 2 канала
Расположение каналов : Front: L R
Частота : 48,0 КГц
Битовая глубина : 16 бит
Метод сжатия : С потерями
Размер потока : 127 Мбайт (7%)
Язык : English
Default : Нет
Forced : Нет

Меню
00:00:00.000 : en:Chapter 01
00:10:00.500 : en:Chapter 02
00:20:00.000 : en:Chapter 03
00:30:00.000 : en:Chapter 04
00:40:00.500 : en:Chapter 05
00:50:00.000 : en:Chapter 06
01:00:00.500 : en:Chapter 07
01:10:00.000 : en:Chapter 08
01:20:00.000 : en:Chapter 09
01:30:00.500 : en:Chapter 10
Исходник R1 2 DVD5 Warner Archive Collection.
В раздаче 2 файла - 2 серии.
Релиз от: Temperest



Скачать Я.знаю.что.мое.имя.Стивен.I.Know.My.First.Name.Is.Steven.(Лэрри.Илайкэнн).[1989.драма.криминал.DVDRip-AVC].[MVO].torrent без регистрации
Золото ЗОЛОТАЯ РАЗДАЧА! СКАЧАННОЕ НЕ ЗАСЧИТЫВАЕТСЯ! Золото
Дата: Зарегистрирован   [ Тип: внутренний ] Как тут cкачать?
MAGNET ссылка
MAGNET ссылка


Скачать .torrent

19 KB

Статус: проверено DHT
Скачан: торрент - 110 раз, раздача полностью - 6 раз
Размер: 3,57 GB
Оценка:  - (Голосов: 0)
Поблагодарили: 1
Поделиться ссылкой на эту раздачу с друзьями:
В контактеFacebookОдноклассникиTwitterLivejournalМой МирLiveinternet
 

 
Показать сообщения:    


Вы не можете начинать темы
Вы не можете отвечать на сообщения
Вы не можете редактировать свои сообщения
Вы не можете удалять свои сообщения
Вы не можете голосовать в опросах
Вы не можете прикреплять файлы к сообщениям
Вы можете скачивать файлы