Loading...
Error

/ Better Call Saul ( 01, 01-09 10) ( , , ) [2015, , , , HDTVRip] [720p] 2x[Sub] (Rus) [Notabenoid] + [Orig] (Eng)

 
7,13 GB   |    :  2272
1  [  0 KB/s  ]  
 

leon030982

[] 


/ Better Call Saul

: 2015
:
: , ,
: 00:52:00
: [Notabenoid]

: , ,

: , , , , , , .

: , , , , , -.




: HDTVRip 720p
: MKV
: AVC, 1280x720 (16:9), 23.976 fps, 2537 kbps
: English, AC3, 48 kHz, 6 ch, 384 kbps
: (Notabenoid),

9- !

2 : Leprastyle [Notabenoid] ( ) .
Leprastyle:

:

. .
. .
1. Uno
2. Mijo
3. Nacho

:

General
Unique ID : 211069827650481541685761926148438356151 (0x9ECA91F4E21B4CBD8E32DE693E73F0B7)
Complete name : C:\Users\Pavel\Documents\Better.Call.Saul.S01.2015.720p.HDTV.x264\Better.Call.Saul.S01E01.720p.HDTV.x264-KILLERS.mkv
Format : Matroska
Format version : Version 4 / Version 2
File size : 1.10 GiB
Duration : 52mn 53s
Overall bit rate : 2 981 Kbps
Encoded date : UTC 2015-02-10 07:16:57
Writing application : mkvmerge v7.6.0 ('Garden of Dreams') 64bit built on Feb 8 2015 13:04:34
Writing library : libebml v1.3.1 + libmatroska v1.4.2
DURATION : 00:50:25.668000000
NUMBER_OF_FRAMES : 818
NUMBER_OF_BYTES : 27717
_STATISTICS_WRITING_APP : mkvmerge v7.6.0 ('Garden of Dreams') 64bit built on Feb 8 2015 13:04:34
_STATISTICS_WRITING_DATE_UTC : 2015-02-10 07:16:57
_STATISTICS_TAGS : BPS DURATION NUMBER_OF_FRAMES NUMBER_OF_BYTES
Video
ID : 1
Format : AVC
Format/Info : Advanced Video Codec
Format profile : High@L4.1
Format settings, CABAC : Yes
Format settings, ReFrames : 5 frames
Codec ID : V_MPEG4/ISO/AVC
Duration : 52mn 53s
Bit rate : 2 537 Kbps
Width : 1 280 pixels
Height : 720 pixels
Display aspect ratio : 16:9
Frame rate mode : Constant
Frame rate : 23.976 fps
Color space : YUV
Chroma subsampling : 4:2:0
Bit depth : 8 bits
Scan type : Progressive
Bits/(Pixel*Frame) : 0.115
Stream size : 960 MiB (85%)
Writing library : x264 core 144 r2525 40bb568
Encoding settings : cabac=1 / ref=5 / deblock=1:0:0 / analyse=0x3:0x113 / me=umh / subme=8 / psy=1 / psy_rd=1.00:0.00 / mixed_ref=1 / me_range=16 / chroma_me=1 / trellis=1 / 8x8dct=1 / cqm=0 / deadzone=21,11 / fast_pskip=1 / chroma_qp_offset=-2 / threads=18 / lookahead_threads=3 / sliced_threads=0 / nr=0 / decimate=1 / interlaced=0 / bluray_compat=0 / constrained_intra=0 / bframes=3 / b_pyramid=2 / b_adapt=2 / b_bias=0 / direct=3 / weightb=1 / open_gop=0 / weightp=2 / keyint=250 / keyint_min=23 / scenecut=40 / intra_refresh=0 / rc_lookahead=50 / rc=crf / mbtree=1 / crf=18.0 / qcomp=0.60 / qpmin=0 / qpmax=69 / qpstep=4 / ip_ratio=1.40 / aq=1:1.00
Language : English
Default : Yes
Forced : No
Matrix coefficients : BT.709
DURATION : 00:52:53.962000000
NUMBER_OF_FRAMES : 76099
NUMBER_OF_BYTES : 1029439650
_STATISTICS_WRITING_APP : mkvmerge v7.6.0 ('Garden of Dreams') 64bit built on Feb 8 2015 13:04:34
_STATISTICS_WRITING_DATE_UTC : 2015-02-10 07:16:57
_STATISTICS_TAGS : BPS DURATION NUMBER_OF_FRAMES NUMBER_OF_BYTES
Audio
ID : 2
Format : AC-3
Format/Info : Audio Coding 3
Mode extension : CM (complete main)
Format settings, Endianness : Big
Codec ID : A_AC3
Duration : 52mn 53s
Bit rate mode : Constant
Bit rate : 384 Kbps
Channel(s) : 6 channels
Channel positions : Front: L C R, Side: L R, LFE
Sampling rate : 48.0 KHz
Bit depth : 16 bits
Compression mode : Lossy
Stream size : 145 MiB (13%)
Language : English
Default : Yes
Forced : No
Text #1
ID : 3
Format : UTF-8
Codec ID : S_TEXT/UTF8
Codec ID/Info : UTF-8 Plain Text
Title : Notabenoid
Language : Russian
Default : Yes
Forced : No
Text #2
ID : 4
Format : UTF-8
Codec ID : S_TEXT/UTF8
Codec ID/Info : UTF-8 Plain Text
Language : English
Default : No
Forced : No

! ; . , :
(1) ,
(2) ( ),
(3) , .
() ( - ), . , !
E , , . , , .



...Better.Call.Saul.(.01..01-09..10).(.....).[2015....HDTVRip].[720p].2x[Sub].(Rus).[Notabenoid].+.[Orig].(Eng).torrent
  ! ! 
:   [ : ] c?
MAGNET
MAGNET


.torrent

19 KB

: DHT
: - 2272 , - 5
: 7,13 GB
- (: 0)
: 0
:
 FacebookTwitterLivejournal Liveinternet
 

 

leon030982

[] 

+4-
 
: