Loading...
Error

Скачать Курт Сеит и Александра / Курт Сеит и Шура / Kurt Seyit ve Sura (сезон 02) (Хилаль Сарал) [2014, драма, мелодрама, военный, история, HDTVRip] [MVO] торрент без регистрации

 
Статистика раздачи
Размер:  9,68 GB   |    Скачан:  462 раза
Сидов:  1  [  0 KB/s  ]  
 
Автор Сообщение

МихаНЕзатор

[] 

Информация о фильме
Название: Курт Сеит и Александра / Курт Сеит и Шура
Оригинальное название: Kurt Seyit ve Sura
Год выхода: 2014
Жанр: драма, мелодрама, военный, история
Режиссер: Хилаль Сарал

В ролях: Кыванч Татлытуг, Фара Зейнеп Абдулла, Berk Erçer, Сердар Гёкхан, Седа Гувен, Sarp Can Köroglu, Биркан Сокуллу, Ushan Çakir, Сергей Тэсслер

О фильме: Герои переживут крах правящей царской династии и Октябрьскую революцию. На фоне этих исторических событий, полных трагизма, горьких утрат, жестоких разочарований, и развернется история любви между бывшим офицером Царской армии лейтенантом Куртом Сеитом и шестнадцатилетней девушкой из аристократического рода Шурой.



Страна: Турция
Студия: Ay Yapim, Star TV
Продолжительность: ~01:45:00 серия
Перевод: Любительский одноголосый закадровый (Ирина Котова)

Файл
Кодек: XviD / MP3
Качество: HDTVRip
Видео: MPEG4, XviD, 720x400 (16:9), 25.000 fps, 1 673 Kbps (0.232 bit/pixel)
Звук: MP3, 44.1 KHz, 2 ch, 192 Kbps, CBR

АНОНСЫ ПОПУЛЯРНЫХ РАЗДАЧ
General
Complete name : Kurt.Seyit.Ve.Sura.Season.2/Kurt.Seyit.Ve.Sura.14.seriya.HDTVRip.avi
Format : AVI
Format/Info : Audio Video Interleave
File size : 1.23 GiB
Duration : 1h 33mn
Overall bit rate : 1 875 Kbps

Video
ID : 0
Format : MPEG-4 Visual
Format profile : Advanced Simple@L5
Format settings, BVOP : 2
Format settings, QPel : No
Format settings, GMC : No warppoints
Format settings, Matrix : Default (H.263)
Codec ID : XVID
Codec ID/Hint : XviD
Duration : 1h 33mn
Bit rate : 1 673 Kbps
Width : 720 pixels
Height : 400 pixels
Display aspect ratio : 16:9
Frame rate : 25.000 fps
Color space : YUV
Chroma subsampling : 4:2:0
Bit depth : 8 bits
Scan type : Progressive
Compression mode : Lossy
Bits/(Pixel*Frame) : 0.232
Stream size : 1.10 GiB (89%)
Writing library : XviD 1.1.2 (UTC 2006-11-01)

Audio
ID : 1
Format : MPEG Audio
Format version : Version 1
Format profile : Layer 3
Codec ID : 55
Codec ID/Hint : MP3
Duration : 1h 33mn
Bit rate mode : Constant
Bit rate : 192 Kbps
Channel(s) : 2 channels
Sampling rate : 44.1 KHz
Compression mode : Lossy
Stream size : 129 MiB (10%)
Alignment : Split accross interleaves
Interleave, duration : 40 ms (1.00 video frame)
Interleave, preload duration : 500 ms



Скачать Курт.Сеит.и.Александра.Курт.Сеит.и.Шура.Kurt.Seyit.ve.Sura.(сезон.02).(Хилаль.Сарал).[2014.драма.мелодрама.военный.история.HDTVRip].[MVO].torrent без регистрации
Золото ЗОЛОТАЯ РАЗДАЧА! СКАЧАННОЕ НЕ ЗАСЧИТЫВАЕТСЯ! Золото
Дата: Зарегистрирован   [ Тип: внутренний ] Как тут cкачать?
MAGNET ссылка
MAGNET ссылка


Скачать .torrent

26 KB

Статус: проверено DHT
Скачан: торрент - 462 раз, раздача полностью - 1350 раз
Размер: 9,68 GB
Оценка:  - (Голосов: 0)
Поблагодарили: 1
Поделиться ссылкой на эту раздачу с друзьями:
В контактеFacebookОдноклассникиTwitterLivejournalМой МирLiveinternet
 

 
Показать сообщения:    


Вы не можете начинать темы
Вы не можете отвечать на сообщения
Вы не можете редактировать свои сообщения
Вы не можете удалять свои сообщения
Вы не можете голосовать в опросах
Вы не можете прикреплять файлы к сообщениям
Вы можете скачивать файлы