Loading...
Error

Скачать Банда защитников / Vigilante Force (Джордж Эрмитаж) [1976, боевик, триллер, драма, криминал, приключения, BDRip-AVC] [DVO]+[Оригинал]+[Sub] торрент без регистрации

 
Статистика раздачи
Размер:  2,97 GB   |    Скачан:  125 раз
Сидов:  1  [  0 KB/s  ]  
 
Автор Сообщение

Marsianka

[] 

Банда защитников / Vigilante Force
Страна: США
Жанр: боевик, триллер, драма, криминал, приключения
Год выпуска: 1976
Продолжительность: 01:29:22

Перевод: Профессиональный (двухголосый закадровый) | НТВ+
Cубтитры: английские
Оригинальная аудиодорожка: английский

Режиссер: Джордж Эрмитаж / George Armitage

В ролях: Крис Кристофферсон, Ян-Майкл Винсент, Виктория Принсипал, Бернадетт Питерс, Брэд Декстер, Джадсон Прэтт, Дэвид Дойл, Энтони Кэрбон, Эндрю Стивенс, Шелли Новак

Описание: Аарон Арнольд - ветеран войны во Вьетнаме, который соглашается помочь брату очистить маленький городок от криминала. Аарон принимается за дело, зачастую используя при этом методы своих противников...



Исходник: Vigilante Force 1976 1080p GER Blu-ray AVC LPCM 2.0-BIZON1984
Качество видео: BDRip-AVC | | sample
Формат видео: MKV
Видео кодек: x264
Видео: AVC 1056x572 (1.85:1), 23.976 fps, ~4350 Kbps, 0.30 bit/pixel
Аудио #1: Russian AC3 2ch 48kHz 192Kbps | DVO НТВ+
Аудио #2: English AC3 2ch 48kHz 192Kbps | Original
Формат субтитров: softsub (SRT)
Главы: есть

General
Complete name : E:...Vigilante.Force.1976.BDRip.x264.DD2.0.Rus.Eng-E76.mkv
Format : Matroska
Format version : Version 2
File size : 2.97 GiB
Duration : 1h 29mn
Overall bit rate : 4 758 Kbps
Movie name : Vigilante.Force.1976.BDRip.x264.DD2.0.Rus.Eng-E76
Encoded date : UTC 2015-01-06 11:43:09
Writing application : mkvmerge v7.0.0 ('Where We Going') 64bit built on Jun 9 2014 15:16:27
Writing library : libebml v1.3.0 + libmatroska v1.4.1

Video
ID : 1
Format : AVC
Format/Info : Advanced Video Codec
Format profile : High@L4.1
Format settings, CABAC : Yes
Format settings, ReFrames : 12 frames
Codec ID : V_MPEG4/ISO/AVC
Duration : 1h 29mn
Bit rate : 4 279 Kbps
Width : 1 056 pixels
Height : 572 pixels
Display aspect ratio : 1.85:1
Frame rate mode : Constant
Frame rate : 23.976 fps
Color space : YUV
Chroma subsampling : 4:2:0
Bit depth : 8 bits
Scan type : Progressive
Bits/(Pixel*Frame) : 0.295
Stream size : 2.67 GiB (90%)
Title : Vigilante Force (1976)
Writing library : x264 core 142 r2491kMod 24e4fed
Encoding settings : cabac=1 / ref=12 / deblock=1:-3:-2 / analyse=0x3:0x113 / me=umh / subme=10 / psy=1 / fade_compensate=0.00 / psy_rd=1.10:0.00 / mixed_ref=1 / me_range=32 / chroma_me=1 / trellis=2 / 8x8dct=1 / cqm=0 / deadzone=21,11 / fast_pskip=1 / chroma_qp_offset=-2 / threads=6 / lookahead_threads=1 / sliced_threads=0 / nr=0 / decimate=1 / interlaced=0 / bluray_compat=0 / constrained_intra=0 / fgo=0 / bframes=14 / b_pyramid=2 / b_adapt=2 / b_bias=0 / direct=1 / weightb=1 / open_gop=0 / weightp=2 / keyint=240 / keyint_min=23 / scenecut=40 / intra_refresh=0 / rc_lookahead=0 / rc=crf / mbtree=0 / crf=20.0000 / qcomp=0.70 / qpmin=0 / qpmax=69 / qpstep=4 / vbv_maxrate=62500 / vbv_bufsize=78125 / crf_max=0.0 / nal_hrd=none / filler=0 / ip_ratio=1.40 / pb_ratio=1.20 / aq=3:1.00
Language : English
Default : Yes
Forced : No
Matrix coefficients : BT.709

Audio #1
ID : 2
Format : AC-3
Format/Info : Audio Coding 3
Mode extension : CM (complete main)
Format settings, Endianness : Big
Codec ID : A_AC3
Duration : 1h 29mn
Bit rate mode : Constant
Bit rate : 192 Kbps
Channel(s) : 2 channels
Channel positions : Front: L R
Sampling rate : 48.0 KHz
Bit depth : 16 bits
Compression mode : Lossy
Stream size : 123 MiB (4%)
Title : DVO NTV+
Language : Russian
Default : Yes
Forced : No

Audio #2
ID : 3
Format : AC-3
Format/Info : Audio Coding 3
Mode extension : CM (complete main)
Format settings, Endianness : Big
Codec ID : A_AC3
Duration : 1h 29mn
Bit rate mode : Constant
Bit rate : 192 Kbps
Channel(s) : 2 channels
Channel positions : Front: L R
Sampling rate : 48.0 KHz
Bit depth : 16 bits
Compression mode : Lossy
Stream size : 123 MiB (4%)
Title : Original
Language : English
Default : No
Forced : No

Text
ID : 4
Format : UTF-8
Codec ID : S_TEXT/UTF8
Codec ID/Info : UTF-8 Plain Text
Language : English
Default : No
Forced : No

Menu
00:00:00.000 : en:00:00:00.000
00:02:15.719 : en:00:02:15.719
...
01:18:09.393 : en:01:18:09.393

--[Information] [05.01.2015 1:51:43] raw [info]: 1056x572p 1:1 @ 24000/1001 fps (cfr)
--[Information] [05.01.2015 1:51:43] x264 [info]: profile High, level 4.1
--[Information] [05.01.2015 11:36:39] x264 [info]: frame I:913 Avg QP:19.44 size: 78763
--[Information] [05.01.2015 11:36:39] x264 [info]: frame P:24425 Avg QP:20.92 size: 34494
--[Information] [05.01.2015 11:36:39] x264 [info]: frame B:103230 Avg QP:22.04 size: 19528
--[Information] [05.01.2015 11:36:39] x264 [info]: consecutive B-frames: 1.1% 1.2% 4.4% 18.7% 16.9% 35.7% 7.4% 3.7% 2.6% 2.1% 2.3% 2.1% 0.6% 0.8% 0.4%
--[Information] [05.01.2015 11:36:39] x264 [info]: kb/s:4371.71



Скачать Банда.защитников.Vigilante.Force.(Джордж.Эрмитаж).[1976.боевик.триллер.драма.криминал.приключения.BDRip-AVC].[DVO]+[Оригинал]+[Sub].torrent без регистрации
Золото ЗОЛОТАЯ РАЗДАЧА! СКАЧАННОЕ НЕ ЗАСЧИТЫВАЕТСЯ! Золото
Дата: Зарегистрирован   [ Тип: внутренний ] Как тут cкачать?
MAGNET ссылка
MAGNET ссылка


Скачать .torrent

15 KB

Статус: проверено DHT
Скачан: торрент - 125 раз, раздача полностью - 4 раз
Размер: 2,97 GB
Оценка:  - (Голосов: 0)
Поблагодарили: 1
Поделиться ссылкой на эту раздачу с друзьями:
В контактеFacebookОдноклассникиTwitterLivejournalМой МирLiveinternet
 

 
Показать сообщения:    


Вы не можете начинать темы
Вы не можете отвечать на сообщения
Вы не можете редактировать свои сообщения
Вы не можете удалять свои сообщения
Вы не можете голосовать в опросах
Вы не можете прикреплять файлы к сообщениям
Вы можете скачивать файлы