Loading...
Error

Скачать Пришелец / Impostor (Гэри Фледер) [2001, фантастика, боевик, триллер, драма, BDRip] [720p] [Dub]+[DVO (НТВ+)]+[AVO (А.Гаврилов)]+[Original] [Theatrical Cut] торрент без регистрации

 
Статистика раздачи
Размер:  4,38 GB   |    Скачан:  121 раз
Сидов:  1  [  0 KB/s  ]  
 
Автор Сообщение

МихаНЕзатор

[] 

Информация о фильме
Название: Пришелец
Оригинальное название: Impostor
Год выхода: 2001
Жанр: фантастика, боевик, триллер, драма
Режиссер: Гэри Фледер

В ролях: Гэри Синиз — Спенсер Олхэм, Мэделин Стоу — Майя Олхэм, Винсент Д’Онофрио — Хэтэуэй, Тони Шалуб — Нельсон Гиттс, Тим Гини — доктор Карон, Мекай Файфер — Кейл, Гэри Дурдан — капитан Берк, Линдсей Краус — канцлер, Элизабет Пенья — акушерка, Шейн Бролли — лейтенант Берроуз, Голден Брукс — сестра Кейла, Тед Кинг — оператор RMR, Рэйчел Латтрелл — медсестра в Комнате сканирования, Жонелль Кеннеди — медсестра, Эрика Гимпел — диктор теленовостей, Арли Джовер — диктор теленовостей, Юна Дэймон — диктор теленовостей, Кимберли Скотт — офицер связи, Джон Гэйтинс — солдат, Адам Родригес — солдат, Кларенс Уильямс III — министр обороны.

О фильме:
Действие картины разворачивается в 2079 году. В 2044 году Земля была атакована инопланетной цивилизацией с Альфы Центавра. Власть взяло в руки тоталитарное военное правительство. Войну удалось свести в патовую ситуацию — главные города Земли были защищены энергетическим щитом, непробиваемым для центаврийцев, однако земляне не имели достаточно сил, чтобы полноценно противостоять захватчикам.

Главным героем является учёный Спенсер Олхэм, разработавший оружие, способное положить конец войне. Но его арестовывают, так как считают его репликантом. Репликанты, созданные инопланетянами, являются живыми минами, перенося в груди небольшие органические ядерные бомбы, при этом являясь абсолютной копией человека-оригинала, обладают воспоминаниями оригинала и не подозревают о своей искусственной природе.

Правительство получило радиоперехват инопланетян, из которого следовало, что клон Олхэма должен убить канцлера Земли. Спенсер бежит от службы безопасности. Сначала он хочет доказать своим преследователям, что они допускают ошибку. Проникнув в медицинский центр, он начинает сканирование собственного тела, но не успевает довести его до конца.

В ситуации, когда его ищут все спецслужбы страны, Спенсер должен доказать свою невиновность и понять, кто он есть на самом деле…

Страна: США
Студия: Dimension Films, Miramax Films
Продолжительность: 01:35:35
Перевод: Дублированный, Профессиональный двухголосый, Авторский одноголосый, Оригинал

Файл
Кодек: x264
Качество: BDRip 720p
Видео: 1280x720 (16:9), 23.976 fps, 5026 kbps (Oakenfold_)
Звук:
Аудио #1: AC3, 384 Kbps, 48.0 KHz, 6 ch (Rus) Дублированный, Мосфильм-Мастер
Аудио #2: AC3, 384 Kbps, 48.0 KHz, 6 ch (Rus) Профессиональный двухголосый, НТВ+
Аудио #3: AC3, 384 Kbps, 48.0 KHz, 6 ch (Rus) Авторский одноголосый, А.Гаврилов
Аудио #4: AC3, 384 Kbps, 48.0 KHz, 6 ch (Eng) Оригинал
Субтитры: Нет

АНОНСЫ ПОПУЛЯРНЫХ РАЗДАЧ
Формат : Matroska
Версия формата : Version 2
Размер файла : 4,38 Гбайт
Продолжительность : 1 ч. 35 м.
Общий поток : 6559 Кбит/сек
Дата кодирования : UTC 2015-02-20 23:39:40
Программа кодирования : mkvmerge v5.4.0 ('Piper') built on Mar 10 2012 13:34:39
Библиотека кодирования : libebml v1.2.3 + libmatroska v1.3.0

Видео
Идентификатор : 1
Формат : AVC
Формат/Информация : Advanced Video Codec
Профиль формата : High@L4.1
Параметр CABAC формата : Да
Параметр ReFrames формата : 9 кадров
Идентификатор кодека : V_MPEG4/ISO/AVC
Продолжительность : 1 ч. 35 м.
Битрейт : 5026 Кбит/сек
Ширина : 1280 пикселей
Высота : 720 пикселей
Соотношение сторон : 16:9
Режим частоты кадров : Постоянный
Частота кадров : 23,976 кадра/сек
Цветовое пространство : YUV
Субдискретизация насыщенности : 4:2:0
Битовая глубина : 8 бит
Тип развёртки : Прогрессивная
Бит/(Пиксели*Кадры) : 0.227
Размер потока : 3,27 Гбайт (75%)
Заголовок : Impostor / Пришелец (2001)
Библиотека кодирования : x264 core 120 r2164+656 2ff844c
Настройки программы : cabac=1 / ref=9 / deblock=1:-3:-3 / analyse=0x3:0x113 / me=umh / subme=10 / psy=1 / fade_compensate=0.00 / psy_rd=1.05:0.10 / mixed_ref=1 / me_range=32 / chroma_me=1 / trellis=2 / 8x8dct=1 / cqm=0 / deadzone=21,11 / fast_pskip=0 / chroma_qp_offset=-2 / threads=12 / sliced_threads=0 / nr=0 / decimate=1 / interlaced=0 / bluray_compat=0 / constrained_intra=0 / fgo=0 / bframes=6 / b_pyramid=2 / b_adapt=2 / b_bias=0 / direct=3 / weightb=1 / open_gop=0 / weightp=2 / keyint=250 / keyint_min=23 / scenecut=40 / intra_refresh=0 / rc_lookahead=40 / rc=2pass / mbtree=0 / bitrate=5026 / ratetol=1.0 / qcomp=0.70 / qpmin=0 / qpmax=69 / qpstep=4 / cplxblur=20.0 / qblur=0.5 / vbv_maxrate=20000 / vbv_bufsize=30000 / nal_hrd=none / ip_ratio=1.40 / pb_ratio=1.30 / aq=2:1.00
Язык : English
Default : Да
Forced : Нет
Основные цвета : BT.709
Характеристики трансфера : BT.709
Коэффициенты матрицы : BT.709
colour_range : Limited

Аудио #1
Идентификатор : 2
Формат : AC-3
Формат/Информация : Audio Coding 3
Расширение режима : CM (complete main)
Параметр Endianness формата : Big
Идентификатор кодека : A_AC3
Продолжительность : 1 ч. 35 м.
Вид битрейта : Постоянный
Битрейт : 384 Кбит/сек
Каналы : 6 каналов
Расположение каналов : Front: L C R, Side: L R, LFE
Частота : 48,0 КГц
Битовая глубина : 16 бит
Метод сжатия : С потерями
Размер потока : 263 Мбайт (6%)
Заголовок : DUB (Russian) Мосфильм-Мастер
Язык : Russian
Default : Да
Forced : Нет

Аудио #2
Идентификатор : 3
Формат : AC-3
Формат/Информация : Audio Coding 3
Расширение режима : CM (complete main)
Параметр Endianness формата : Big
Идентификатор кодека : A_AC3
Продолжительность : 1 ч. 35 м.
Вид битрейта : Постоянный
Битрейт : 384 Кбит/сек
Каналы : 6 каналов
Расположение каналов : Front: L C R, Side: L R, LFE
Частота : 48,0 КГц
Битовая глубина : 16 бит
Метод сжатия : С потерями
Размер потока : 263 Мбайт (6%)
Заголовок : DVO (Russian) НТВ+
Язык : Russian
Default : Нет
Forced : Нет

Аудио #3
Идентификатор : 4
Формат : AC-3
Формат/Информация : Audio Coding 3
Расширение режима : CM (complete main)
Параметр Endianness формата : Big
Идентификатор кодека : A_AC3
Продолжительность : 1 ч. 35 м.
Вид битрейта : Постоянный
Битрейт : 384 Кбит/сек
Каналы : 6 каналов
Расположение каналов : Front: L C R, Side: L R, LFE
Частота : 48,0 КГц
Битовая глубина : 16 бит
Метод сжатия : С потерями
Размер потока : 263 Мбайт (6%)
Заголовок : AVO (А.Гаврилов)
Язык : Russian
Default : Нет
Forced : Нет

Аудио #4
Идентификатор : 5
Формат : AC-3
Формат/Информация : Audio Coding 3
Расширение режима : CM (complete main)
Параметр Endianness формата : Big
Идентификатор кодека : A_AC3
Продолжительность : 1 ч. 35 м.
Вид битрейта : Постоянный
Битрейт : 384 Кбит/сек
Каналы : 6 каналов
Расположение каналов : Front: L C R, Side: L R, LFE
Частота : 48,0 КГц
Битовая глубина : 16 бит
Метод сжатия : С потерями
Размер потока : 263 Мбайт (6%)
Заголовок : Original (English)
Язык : English
Default : Нет
Forced : Нет



Скачать Пришелец.Impostor.(Гэри.Фледер).[2001.фантастика.боевик.триллер.драма.BDRip].[720p].[Dub]+[DVO.(НТВ+)]+[AVO.(А.Гаврилов)]+[Original].[Theatrical.Cut].torrent без регистрации
Золото ЗОЛОТАЯ РАЗДАЧА! СКАЧАННОЕ НЕ ЗАСЧИТЫВАЕТСЯ! Золото
Дата: Зарегистрирован   [ Тип: внутренний ] Как тут cкачать?
MAGNET ссылка
MAGNET ссылка


Скачать .torrent

12 KB

Статус: проверено DHT
Скачан: торрент - 121 раз, раздача полностью - 17 раз
Размер: 4,38 GB
Оценка:  - (Голосов: 0)
Поблагодарили: 2
Поделиться ссылкой на эту раздачу с друзьями:
В контактеFacebookОдноклассникиTwitterLivejournalМой МирLiveinternet
 

 
Показать сообщения:    


Вы не можете начинать темы
Вы не можете отвечать на сообщения
Вы не можете редактировать свои сообщения
Вы не можете удалять свои сообщения
Вы не можете голосовать в опросах
Вы не можете прикреплять файлы к сообщениям
Вы можете скачивать файлы