Loading...
Error

Скачать Викинги / Vikings (сезон 03) (Йохан Ренк т др.) [2015, боевик, драма, военный, история, WEB-DL] [1080p] 3x[MVO (LostFilm, NewStudio, AlexFilm)] торрент без регистрации

 
Статистика раздачи
Размер:  20,74 GB   |    Скачан:  2248 раз
Сидов:  1  [  0 KB/s  ]  
 
Автор Сообщение

МихаНЕзатор

[] 

Информация о фильме
Название: Викинги
Оригинальное название: Vikings
Год выхода: 2015
Жанр: боевик, драма, военный, история
Режиссер: Йохан Ренк, Киаран Доннелли, Кен Джиротти и др.

В ролях: Трэвис Фиммел, Клайв Стэнден, Гэбриел Бирн, Кэтрин Уинник, Джессалин Гилсиг, Джордж Благден, Густаф Скарсгард, Торбьорн Харр, Владимир Кулих, Донал Лог, Айван Кэй, Мод Хирст, Эрик Хиггинс, Герард Маккарти, Юко Ахола, Эми Де Брюн, Сэм Смит, Билл Гибсон, Кевин Мюррэй

О фильме: История повествует о приключениях величайшего героя своего времени – Рагнара Лодброка. В сериале показан Рагнар со своим племенем братьев-викингов и его семьёй в процессе становления королём всех племён викингов. Рагнар – бесстрашный воин, и религиозный викинг, который объединяет все племена и распространяет среди них поклонение скандинавским богам. Согласно легенде, он – прямой потомок Одина, бога войны и воителей.



Страна: Ирландия, Канада
Продолжительность: ~00:45:00 серия
Перевод:
Многоголосый закадровый, профессиональный | LostFilm
Многоголосый закадровый, профессиональный | NewStudio
Многоголосый закадровый, профессиональный | AlexFilm

Файл
Кодек: MPEG-4 AVC/H.264
Качество: WEB-DL 1080p
Видео: AVC, 1916x1076 (1.778), 23.976 fps, ~5000 kbps, 0.101 bit/pixel
Звук:
Аудио rus: AC-3, 48 KHz, 6 ch, 384 kbps | LostFilm
Аудио rus: AC-3, 48 KHz, 6 ch, 384 kbps | NewStudio
Аудио rus: AC-3, 48 KHz, 6 ch, 384 kbps | AlexFilm
Аудио eng: AC-3, 48 KHz, 6 ch, 384 kbps
Субтитры: русские (notabenoid), английские

Релиз от: skyns61

АНОНСЫ ПОПУЛЯРНЫХ РАЗДАЧ


Торрент обновлён, добавлена 10-я серия!

Монтаж, работа со звуком ; синхронизация субтитров : Skyns61
Субтитры - notabenoid от MuJI
Выделенный Voiceover от «LostFilm» был наложен на центр оригинального AC3.

01. Наёмник /Mercenary
02. Странник /The Wanderer
03. Путь воина /Warrior's Fate
04. Шрам /Scarred
05. Узурпатор /The Usurper
06. Рождённый заново /Born Again
07. Париж /Paris
08. В атаку! /To the Gates!
09. Перелом /Breaking Point
10. Мертвец /The Dead

Общее
Уникальный идентификатор : 186335266819624958803274238419508359448 (0x8C2EDDF4207939F4A3F859900BFB7118)
Полное имя : F:FilmsVikings.s03.1080p.L.N.AVikings.S03E01.1080p.WEB-DL.3xRus.Eng.DD5.1.mkv
Формат : Matroska
Версия формата : Version 4 / Version 2
Размер файла : 2,10 Гбайт
Продолжительность : 45 м.
Общий поток : 6654 Кбит/сек
Дата кодирования : UTC 2015-04-25 12:26:12
Программа кодирования : mkvmerge v7.8.0 ('River Man') 64bit built on Mar 27 2015 16:31:37
Библиотека кодирования : libebml v1.3.1 + libmatroska v1.4.2
_STATISTICS_WRITING_APP : mkvmerge v7.8.0 ('River Man') 64bit built on Mar 27 2015 16:31:37
_STATISTICS_WRITING_DATE_UTC : 2015-04-25 12:26:12
_STATISTICS_TAGS : BPS DURATION NUMBER_OF_FRAMES NUMBER_OF_BYTES
DURATION : 00:45:10.048000000
NUMBER_OF_FRAMES : 84689
NUMBER_OF_BYTES : 130082304

Видео
Идентификатор : 1
Формат : AVC
Формат/Информация : Advanced Video Codec
Профиль формата : High@L4.0
Параметр CABAC формата : Да
Параметр ReFrames формата : 4 кадра
Идентификатор кодека : V_MPEG4/ISO/AVC
Продолжительность : 45 м.
Битрейт : 4986 Кбит/сек
Ширина : 1916 пикселей
Высота : 1076 пикселей
Соотношение сторон : 16:9
Режим частоты кадров : Постоянный
Частота кадров : 23,976 кадра/сек
Цветовое пространство : YUV
Субдискретизация насыщенности : 4:2:0
Битовая глубина : 8 бит
Тип развёртки : Прогрессивная
Бит/(Пиксели*Кадры) : 0.101
Размер потока : 1,57 Гбайт (75%)
Язык : English
Default : Да
Forced : Нет
Основные цвета : BT.709
Характеристики трансфера : BT.709
Коэффициенты матрицы : BT.709

Аудио #1
Идентификатор : 2
Формат : AC-3
Формат/Информация : Audio Coding 3
Расширение режима : CM (complete main)
Параметр Endianness формата : Big
Идентификатор кодека : A_AC3
Продолжительность : 45 м.
Вид битрейта : Постоянный
Битрейт : 384 Кбит/сек
Каналы : 6 каналов
Расположение каналов : Front: L C R, Side: L R, LFE
Частота : 48,0 КГц
Битовая глубина : 16 бит
Метод сжатия : С потерями
Размер потока : 124 Мбайт (6%)
Заголовок : LostFilm 5.1
Язык : Russian
Default : Да
Forced : Нет

Аудио #2
Идентификатор : 3
Формат : AC-3
Формат/Информация : Audio Coding 3
Расширение режима : CM (complete main)
Параметр Endianness формата : Big
Идентификатор кодека : A_AC3
Продолжительность : 45 м.
Вид битрейта : Постоянный
Битрейт : 384 Кбит/сек
Каналы : 6 каналов
Расположение каналов : Front: L C R, Side: L R, LFE
Частота : 48,0 КГц
Битовая глубина : 16 бит
Метод сжатия : С потерями
Размер потока : 124 Мбайт (6%)
Заголовок : NewStudio 5.1
Язык : Russian
Default : Нет
Forced : Нет

Аудио #3
Идентификатор : 4
Формат : AC-3
Формат/Информация : Audio Coding 3
Расширение режима : CM (complete main)
Параметр Endianness формата : Big
Идентификатор кодека : A_AC3
Продолжительность : 45 м.
Вид битрейта : Постоянный
Битрейт : 384 Кбит/сек
Каналы : 6 каналов
Расположение каналов : Front: L C R, Side: L R, LFE
Частота : 48,0 КГц
Битовая глубина : 16 бит
Метод сжатия : С потерями
Размер потока : 124 Мбайт (6%)
Заголовок : AlexFilm 5.1
Язык : Russian
Default : Нет
Forced : Нет

Аудио #4
Идентификатор : 5
Формат : AC-3
Формат/Информация : Audio Coding 3
Расширение режима : CM (complete main)
Параметр Endianness формата : Big
Идентификатор кодека : A_AC3
Продолжительность : 45 м.
Вид битрейта : Постоянный
Битрейт : 384 Кбит/сек
Каналы : 6 каналов
Расположение каналов : Front: L C R, Side: L R, LFE
Частота : 48,0 КГц
Битовая глубина : 16 бит
Метод сжатия : С потерями
Размер потока : 124 Мбайт (6%)
Заголовок : original
Язык : English
Default : Нет
Forced : Нет

Текст #1
Идентификатор : 6
Формат : UTF-8
Идентификатор кодека : S_TEXT/UTF8
Идентификатор кодека/Информация : UTF-8 Plain Text
Заголовок : rus
Язык : Russian
Default : Нет
Forced : Нет

Текст #2
Идентификатор : 7
Формат : UTF-8
Идентификатор кодека : S_TEXT/UTF8
Идентификатор кодека/Информация : UTF-8 Plain Text
Заголовок : CC
Язык : English
Default : Нет
Forced : Нет



Скачать Викинги.Vikings.(сезон.03).(Йохан.Ренк.т.др.).[2015.боевик.драма.военный.история.WEB-DL].[1080p].3x[MVO.(LostFilm.NewStudio.AlexFilm)].torrent без регистрации
Золото ЗОЛОТАЯ РАЗДАЧА! СКАЧАННОЕ НЕ ЗАСЧИТЫВАЕТСЯ! Золото
Дата: Зарегистрирован   [ Тип: внутренний ] Как тут cкачать?
MAGNET ссылка
MAGNET ссылка


Скачать .torrent

53 KB

Статус: проверено DHT
Скачан: торрент - 2248 раз, раздача полностью - 44 раз
Размер: 20,74 GB
Оценка:  5 (Голосов: 1)
Поблагодарили: 0
Поделиться ссылкой на эту раздачу с друзьями:
В контактеFacebookОдноклассникиTwitterLivejournalМой МирLiveinternet
 

 
Показать сообщения:    


Вы не можете начинать темы
Вы не можете отвечать на сообщения
Вы не можете редактировать свои сообщения
Вы не можете удалять свои сообщения
Вы не можете голосовать в опросах
Вы не можете прикреплять файлы к сообщениям
Вы можете скачивать файлы