Loading...
Error

Скачать Всегда готовы / Nati con la camicia (Энцо Барбони) [1983, комедия, приключения, боевик, BDRip-AVC] [Dub]+[Оригинал] торрент без регистрации

 
Статистика раздачи
Размер:  3,5 GB   |    Скачан:  108 раз
Сидов:  1  [  0 KB/s  ]  
 
Автор Сообщение

Marsianka

[] 

Страна: Италия, США
Жанр: комедия, приключения, боевик
Год выпуска: 1983
Продолжительность: 01:49:00

Перевод: Дублированный
Cубтитры: нет
Оригинальная аудиодорожка: английский

Режиссер: Энцо Барбони / Enzo Barboni

В ролях: Теренс Хилл, Бад Спенсер, Баффи Ди, Дэвид Хаддлстон, Риккардо Пиццути, Фэйт Минтон, Дэн Рэмбо, Дэн Фицджералд, Аль Нестор, Дарси Шин

Описание: Водитель грузовика Мэйсон подбирает по дороге Роско, путешествующего автостопом. Во время проверки документов полицейские перепутали и приняли их за грабителей, но Мэйсон с Роско сумели удрать от них. Но только для того, что-бы вляпаться в еще более худшую ситуацию. В Майами они влипают в потасовку и случайно в их руки попадает дипломат с миллионом долларов. Поразмыслив немного позже, они понимают, что на этот раз их перепутали с парой секретных агентов, но уже слишком поздно и они глубоко увязли в этой истории...



Доп. информация: за работу над дорогой благодарим Linger babe

Исходник: Nati con la camicia 1983 1080p GER Blu-ray AVC DTS-HD MA 2.0 @ HDBits
Качество видео: BDRip-AVC | | sample
Формат видео: MKV
Видео кодек: x264
Видео: AVC 960x540 (16:9), 23.976 fps, ~4200 Kbps, 0.34 bit/pixel
Аудио #1: Russian AC3 2ch 48kHz 192Kbps | Dub
Аудио #2: English AC3 2ch 48kHz 192Kbps | Original
Главы: есть

General
Complete name : D:...Nati.con.la.camicia.1983.BDRip.x264.DD2.0.Rus.Eng-E76.mkv
Format : Matroska
Format version : Version 2
File size : 3.50 GiB
Duration : 1h 49mn
Overall bit rate : 4 591 Kbps
Movie name : Nati.con.la.camicia.1983.BDRip.x264.DD2.0.Rus.Eng-E76
Encoded date : UTC 2015-01-08 15:23:10
Writing application : mkvmerge v7.0.0 ('Where We Going') 64bit built on Jun 9 2014 15:16:27
Writing library : libebml v1.3.0 + libmatroska v1.4.1

Video
ID : 1
Format : AVC
Format/Info : Advanced Video Codec
Format profile : High@L4.1
Format settings, CABAC : Yes
Format settings, ReFrames : 12 frames
Codec ID : V_MPEG4/ISO/AVC
Bit rate : 4 116 Kbps
Width : 960 pixels
Height : 540 pixels
Display aspect ratio : 16:9
Frame rate mode : Constant
Color space : YUV
Chroma subsampling : 4:2:0
Bit depth : 8 bits
Scan type : Progressive
Title : Encode by E76
Writing library : x264 core 142 r2431kMod ac76440
Encoding settings : cabac=1 / ref=12 / deblock=1:-3:-2 / analyse=0x3:0x113 / me=umh / subme=10 / psy=1 / fade_compensate=0.00 / psy_rd=1.05:0.00 / mixed_ref=1 / me_range=32 / chroma_me=1 / trellis=2 / 8x8dct=1 / cqm=0 / deadzone=21,11 / fast_pskip=1 / chroma_qp_offset=-2 / threads=6 / lookahead_threads=1 / sliced_threads=0 / nr=0 / decimate=1 / interlaced=0 / bluray_compat=0 / constrained_intra=0 / fgo=0 / bframes=12 / b_pyramid=2 / b_adapt=2 / b_bias=0 / direct=1 / weightb=1 / open_gop=0 / weightp=2 / keyint=240 / keyint_min=23 / scenecut=40 / intra_refresh=0 / rc_lookahead=120 / rc=crf / mbtree=1 / crf=19.2500 / qcomp=0.70 / qpmin=0 / qpmax=69 / qpstep=4 / vbv_maxrate=50000 / vbv_bufsize=62500 / crf_max=0.0 / nal_hrd=none / filler=0 / ip_ratio=1.40 / aq=1:1.00
Language : English
Default : Yes
Forced : No
Matrix coefficients : BT.709

Audio #1
ID : 2
Format : AC-3
Format/Info : Audio Coding 3
Mode extension : CM (complete main)
Format settings, Endianness : Big
Codec ID : A_AC3
Duration : 1h 49mn
Bit rate mode : Constant
Bit rate : 192 Kbps
Channel(s) : 2 channels
Channel positions : Front: L R
Sampling rate : 48.0 KHz
Bit depth : 16 bits
Compression mode : Lossy
Stream size : 150 MiB (4%)
Title : Dub
Language : Russian
Default : Yes
Forced : No

Audio #2
ID : 3
Format : AC-3
Format/Info : Audio Coding 3
Mode extension : CM (complete main)
Format settings, Endianness : Big
Codec ID : A_AC3
Duration : 1h 49mn
Bit rate mode : Constant
Bit rate : 192 Kbps
Channel(s) : 2 channels
Channel positions : Front: L R
Sampling rate : 48.0 KHz
Bit depth : 16 bits
Compression mode : Lossy
Stream size : 150 MiB (4%)
Title : Original
Language : English
Default : No
Forced : No

Menu
00:00:00.000 : en:00:00:00.000
00:13:12.208 : en:00:13:12.208
00:28:07.644 : en:00:28:07.644
00:39:44.591 : en:00:39:44.591
00:54:33.812 : en:00:54:33.812
01:12:54.996 : en:01:12:54.996
01:31:56.970 : en:01:31:56.970
01:41:43.973 : en:01:41:43.973

--[Information] [28.07.2014 8:25:22] x264 [info]: frame I:1171 Avg QP:16.83 size: 99409
--[Information] [28.07.2014 8:25:23] x264 [info]: frame P:29107 Avg QP:20.40 size: 38667
--[Information] [28.07.2014 8:25:23] x264 [info]: frame B:126531 Avg QP:22.11 size: 17354
--[Information] [28.07.2014 8:25:23] x264 [info]: consecutive B-frames: 1.1% 0.9% 3.1% 14.4% 16.6% 43.4% 9.8% 3.1% 3.0% 2.2% 1.2% 0.7% 0.5%
--[Information] [28.07.2014 8:25:23] x264 [info]: kb/s:4205.06



Скачать Всегда.готовы.Nati.con.la.camicia.(Энцо.Барбони).[1983.комедия.приключения.боевик.BDRip-AVC].[Dub]+[Оригинал].torrent без регистрации
Золото ЗОЛОТАЯ РАЗДАЧА! СКАЧАННОЕ НЕ ЗАСЧИТЫВАЕТСЯ! Золото
Дата: Зарегистрирован   [ Тип: внутренний ] Как тут cкачать?
MAGNET ссылка
MAGNET ссылка


Скачать .torrent

18 KB

Статус: проверено DHT
Скачан: торрент - 108 раз, раздача полностью - 11 раз
Размер: 3,5 GB
Оценка:  - (Голосов: 0)
Поблагодарили: 1
Поделиться ссылкой на эту раздачу с друзьями:
В контактеFacebookОдноклассникиTwitterLivejournalМой МирLiveinternet
 

 
Показать сообщения:    


Вы не можете начинать темы
Вы не можете отвечать на сообщения
Вы не можете редактировать свои сообщения
Вы не можете удалять свои сообщения
Вы не можете голосовать в опросах
Вы не можете прикреплять файлы к сообщениям
Вы можете скачивать файлы