Loading...
Error

Скачать Пленки Андерсона / The Anderson Tapes (Сидни Люмет) [1971, драма, триллер, криминал, BDRip-AVC] [MVO]x2+[Оригинал]+[Sub] торрент без регистрации

 
Статистика раздачи
Размер:  3,47 GB   |    Скачан:  103 раза
Сидов:  1  [  0 KB/s  ]  
 
Автор Сообщение

Marsianka

[] 

Пленки Андерсона / The Anderson Tapes
Страна: США
Жанр: драма, триллер, криминал
Год выпуска: 1971
Продолжительность: 01:38:52

Перевод#1: Профессиональный (многоголосый закадровый) | НТВ+
Перевод#2: Профессиональный (многоголосый закадровый) | ДВД Магия
Cубтитры: английские
Оригинальная аудиодорожка: английский

Режиссер: Сидни Люмет / Sidney Lumet

В ролях: Шон Коннери, Дайан Кэннон, Мартин Болсам, Ральф Микер, Алан Кинг, Кристофер Уокен, Вэл Эйвери, Дик Энтони Уильямс, Гаррет Моррис, Стэн Готтлиб

Описание: Отсидев десять лет в тюрьме за кражу, неисправимый вор Джон Андерсон выходит на свободу и сразу принимается за старое. Он едет к своей давней возлюбленной Ингрид, чтобы погостить в ее шикарной квартире, а заодно и обворовать всех ее зажиточных соседей. Вор не знает одного — в престижном доме установлена коварная система аудио и визуального наблюдения, которая записывает каждый преступный шаг на пленку...



Доп. информация: за дороги благодарим AnryV и jurasiom, за работу над дорогами - Linger babe

Исходник: The Anderson Tapes 1971 / Physical Evidence 1989 1080p Blu-ray AVC DTS-HD MA 2.0 @ HDBits
Качество видео: BDRip-AVC | sample
Формат видео: MKV
Видео кодек: x264
Видео: AVC 960x540 (16:9), 23.976 fps, ~4450 Kbps, 0.35 bit/pixel
Аудио #1: Russian AC3 2ch 48kHz 192Kbps | MVO НТВ+
Аудио #2: Russian AC3 2ch 48kHz 192Kbps | MVO ДВД Магия
Аудио #3: English AC3 2ch 48kHz 192Kbps | Original
Формат субтитров: softsub (SRT)
Главы: есть

General
Complete name : E:...The.Anderson.Tapes.1971.BDRip.x264.DD2.0.Rus.Eng-E76.mkv
Format : Matroska
Format version : Version 4 / Version 2
File size : 3.47 GiB
Duration : 1h 38mn
Overall bit rate : 5 021 Kbps
Movie name : The.Anderson.Tapes.1971.BDRip.x264.DD2.0.Rus.Eng-E76
Encoded date : UTC 2013-11-12 06:29:25
Writing application : mkvmerge v6.2.0 ('Promised Land') built on Apr 28 2013 12:22:01
Writing library : libebml v1.3.0 + libmatroska v1.4.0

Video
ID : 1
Format : AVC
Format/Info : Advanced Video Codec
Format profile : High@L4.1
Format settings, CABAC : Yes
Format settings, ReFrames : 12 frames
Codec ID : V_MPEG4/ISO/AVC
Duration : 1h 38mn
Bit rate : 4 345 Kbps
Width : 960 pixels
Height : 540 pixels
Display aspect ratio : 16:9
Frame rate mode : Constant
Frame rate : 23.976 fps
Color space : YUV
Chroma subsampling : 4:2:0
Bit depth : 8 bits
Scan type : Progressive
Bits/(Pixel*Frame) : 0.350
Stream size : 3.00 GiB (87%)
Title : Encode by Enclave76
Writing library : x264 core 138 r2358kMod 9e941d1
Encoding settings : cabac=1 / ref=12 / deblock=1:-3:-2 / analyse=0x3:0x113 / me=umh / subme=10 / psy=1 / fade_compensate=0.00 / psy_rd=1.00:0.00 / mixed_ref=1 / me_range=32 / chroma_me=1 / trellis=2 / 8x8dct=1 / cqm=0 / deadzone=21,11 / fast_pskip=1 / chroma_qp_offset=-2 / threads=6 / lookahead_threads=1 / sliced_threads=0 / nr=0 / decimate=1 / interlaced=0 / bluray_compat=0 / constrained_intra=0 / bframes=16 / b_pyramid=2 / b_adapt=2 / b_bias=0 / direct=1 / weightb=1 / open_gop=0 / weightp=2 / keyint=240 / keyint_min=23 / scenecut=40 / intra_refresh=0 / rc_lookahead=0 / rc=crf / mbtree=0 / crf=20.7500 / qcomp=0.75 / qpmin=0 / qpmax=69 / qpstep=4 / vbv_maxrate=50000 / vbv_bufsize=62500 / crf_max=0.0 / nal_hrd=none / ip_ratio=1.40 / pb_ratio=1.30 / aq=3:1.00
Language : English
Default : Yes
Forced : No
Matrix coefficients : BT.709

Audio #1
ID : 2
Format : AC-3
Format/Info : Audio Coding 3
Mode extension : CM (complete main)
Format settings, Endianness : Big
Codec ID : A_AC3
Duration : 1h 38mn
Bit rate mode : Constant
Bit rate : 192 Kbps
Channel(s) : 2 channels
Channel positions : Front: L R
Sampling rate : 48.0 KHz
Bit depth : 16 bits
Compression mode : Lossy
Stream size : 136 MiB (4%)
Title : MVO NTV+
Language : Russian
Default : Yes
Forced : No

Audio #2
ID : 3
Format : AC-3
Format/Info : Audio Coding 3
Mode extension : CM (complete main)
Format settings, Endianness : Big
Codec ID : A_AC3
Duration : 1h 38mn
Bit rate mode : Constant
Bit rate : 192 Kbps
Channel(s) : 2 channels
Channel positions : Front: L R
Sampling rate : 48.0 KHz
Bit depth : 16 bits
Compression mode : Lossy
Stream size : 136 MiB (4%)
Title : MVO DVD Magic
Language : Russian
Default : No
Forced : No

Audio #3
ID : 4
Format : AC-3
Format/Info : Audio Coding 3
Mode extension : CM (complete main)
Format settings, Endianness : Big
Codec ID : A_AC3
Duration : 1h 38mn
Bit rate mode : Constant
Bit rate : 192 Kbps
Channel(s) : 2 channels
Channel positions : Front: L R
Sampling rate : 48.0 KHz
Bit depth : 16 bits
Compression mode : Lossy
Stream size : 136 MiB (4%)
Title : Original
Language : English
Default : No
Forced : No

Text
ID : 5
Format : UTF-8
Codec ID : S_TEXT/UTF8
Codec ID/Info : UTF-8 Plain Text
Language : English
Default : No
Forced : No

Menu
00:00:00.000 : en:00:00:00.000
00:08:13.827 : en:00:08:13.827
00:15:53.953 : en:00:15:53.953
00:24:21.001 : en:00:24:21.001
00:31:35.602 : en:00:31:35.602
00:39:42.213 : en:00:39:42.213
00:47:58.584 : en:00:47:58.584
00:58:54.531 : en:00:58:54.531
01:03:38.732 : en:01:03:38.732
01:09:44.639 : en:01:09:44.639
01:18:26.744 : en:01:18:26.744
01:24:05.040 : en:01:24:05.040

--[Information] [08.10.2013 4:04:19] x264 [info]: frame I:935 Avg QP:20.21 size: 70008
--[Information] [08.10.2013 4:04:19] x264 [info]: frame P:24456 Avg QP:21.15 size: 37637
--[Information] [08.10.2013 4:04:19] x264 [info]: frame B:116841 Avg QP:22.78 size: 19757
--[Information] [08.10.2013 4:04:19] x264 [info]: consecutive B-frames: 0.9% 0.5% 2.8% 8.5% 11.2% 54.3% 5.5% 2.1% 2.4% 3.1% 3.1% 3.6% 1.1% 0.4% 0.2% 0.1% 0.2%
--[Information] [08.10.2013 4:04:19] x264 [info]: kb/s:4442.60



Скачать Пленки.Андерсона.The.Anderson.Tapes.(Сидни.Люмет).[1971.драма.триллер.криминал.BDRip-AVC].[MVO]x2+[Оригинал]+[Sub].torrent без регистрации
Золото ЗОЛОТАЯ РАЗДАЧА! СКАЧАННОЕ НЕ ЗАСЧИТЫВАЕТСЯ! Золото
Дата: Зарегистрирован   [ Тип: внутренний ] Как тут cкачать?
MAGNET ссылка
MAGNET ссылка


Скачать .torrent

18 KB

Статус: проверено DHT
Скачан: торрент - 103 раз, раздача полностью - 1 раз
Размер: 3,47 GB
Оценка:  - (Голосов: 0)
Поблагодарили: 1
Поделиться ссылкой на эту раздачу с друзьями:
В контактеFacebookОдноклассникиTwitterLivejournalМой МирLiveinternet
 

 
Показать сообщения:    


Вы не можете начинать темы
Вы не можете отвечать на сообщения
Вы не можете редактировать свои сообщения
Вы не можете удалять свои сообщения
Вы не можете голосовать в опросах
Вы не можете прикреплять файлы к сообщениям
Вы можете скачивать файлы