Loading...
Error

Скачать Вещественное доказательство / Physical Evidence (Майкл Крайтон) [1989, триллер, детектив, криминал, BDRip-AVC] [MVO]+[AVO (А. Гаврилов)]+[Оригинал]+[Sub]x2 торрент без регистрации

 
Статистика раздачи
Размер:  3,78 GB   |    Скачан:  107 раз
Сидов:  1  [  0 KB/s  ]  
 
Автор Сообщение

Marsianka

[] 

Вещественное доказательство / Physical Evidence
Страна: США
Жанр: триллер, детектив, криминал
Год выпуска: 1989
Продолжительность: 01:39:22

Перевод#1: Профессиональный (многоголосый закадровый) | R5
Перевод#2: Авторский (одноголосый закадровый), А. Гаврилов
Cубтитры: русские, английские
Оригинальная аудиодорожка: английский

Режиссер: Майкл Крайтон / Michael Crichton

В ролях: Берт Рейнолдс, Тереза Расселл, Нед Битти, Кэй Ленц, Тед МакГинли, Том О’Брайен, Кеннет Уэлш, Рэй Бэйкер, Кен Джеймс, Майкл П. Моран

Описание: Бывший полицейский детектив из Бостона Джо Пэрис обвинен в убийстве Джека Флаэрти, личности с темным прошлым. У Джо нет алиби, и он был смертельно пьян в ночь убийства. За это, казалось бы, безнадежное дело берется адвокат-дебютантка Дженни Хадсон...



Доп. информация: за работу над дорогами благодарим Linger babe

Исходник: The Anderson Tapes 1971 / Physical Evidence 1989 1080p Blu-ray AVC DTS-HD MA 2.0 @ HDBits
Качество видео: BDRip-AVC | sample
Формат видео: MKV
Видео кодек: x264
Видео: AVC 1056x594 (16:9), 23.976 fps, ~4500 Kbps, 0.30 bit/pixel
Аудио #1: Russian AC3 6ch 48kHz 384Kbps | MVO R5
Аудио #2: Russian AC3 6ch 48kHz 384Kbps | AVO Гаврилов
Аудио #3: English AC3 2ch 48kHz 192Kbps | Original BD
Формат субтитров: softsub (SRT)
Главы: есть

General
Complete name : E:...Physical.Evidence.1989.BDRip.x264.AC3.Rus.Eng-E76.mkv
Format : Matroska
Format version : Version 4 / Version 2
File size : 3.78 GiB
Duration : 1h 39mn
Overall bit rate : 5 451 Kbps
Movie name : Physical.Evidence.1989.BDRip.x264.AC3.Rus.Eng-E76
Encoded date : UTC 2013-11-13 02:53:28
Writing application : mkvmerge v6.2.0 ('Promised Land') built on Apr 28 2013 12:22:01
Writing library : libebml v1.3.0 + libmatroska v1.4.0

Video
ID : 1
Format : AVC
Format/Info : Advanced Video Codec
Format profile : High@L4.1
Format settings, CABAC : Yes
Format settings, ReFrames : 12 frames
Codec ID : V_MPEG4/ISO/AVC
Duration : 1h 39mn
Bit rate : 4 490 Kbps
Width : 1 056 pixels
Height : 594 pixels
Display aspect ratio : 16:9
Frame rate mode : Constant
Frame rate : 23.976 fps
Color space : YUV
Chroma subsampling : 4:2:0
Bit depth : 8 bits
Scan type : Progressive
Bits/(Pixel*Frame) : 0.299
Stream size : 3.04 GiB (80%)
Title : Encode by Enclave76
Writing library : x264 core 138 r2358kMod 9e941d1
Encoding settings : cabac=1 / ref=12 / deblock=1:-3:-2 / analyse=0x3:0x113 / me=umh / subme=11 / psy=1 / fade_compensate=0.00 / psy_rd=1.10:0.15 / mixed_ref=1 / me_range=48 / chroma_me=1 / trellis=2 / 8x8dct=1 / cqm=0 / deadzone=21,11 / fast_pskip=0 / chroma_qp_offset=-3 / threads=6 / lookahead_threads=1 / sliced_threads=0 / nr=0 / decimate=0 / interlaced=0 / bluray_compat=0 / constrained_intra=0 / bframes=12 / b_pyramid=2 / b_adapt=2 / b_bias=0 / direct=3 / weightb=1 / open_gop=0 / weightp=2 / keyint=240 / keyint_min=23 / scenecut=40 / intra_refresh=0 / rc_lookahead=0 / rc=2pass / mbtree=0 / bitrate=4490 / ratetol=1.0 / qcomp=0.70 / qpmin=0 / qpmax=69 / qpstep=4 / cplxblur=20.0 / qblur=0.5 / vbv_maxrate=50000 / vbv_bufsize=62500 / nal_hrd=none / ip_ratio=1.40 / pb_ratio=1.10 / aq=1:0.80 / zones=139660,142951,q=30
Language : English
Default : No
Forced : No
Matrix coefficients : BT.709

Audio #1
ID : 2
Format : AC-3
Format/Info : Audio Coding 3
Mode extension : CM (complete main)
Format settings, Endianness : Big
Codec ID : A_AC3
Duration : 1h 39mn
Bit rate mode : Constant
Bit rate : 384 Kbps
Channel(s) : 6 channels
Channel positions : Front: L C R, Side: L R, LFE
Sampling rate : 48.0 KHz
Bit depth : 16 bits
Compression mode : Lossy
Stream size : 273 MiB (7%)
Title : MVO R5
Language : Russian
Default : Yes
Forced : No

Audio #2
ID : 3
Format : AC-3
Format/Info : Audio Coding 3
Mode extension : CM (complete main)
Format settings, Endianness : Big
Codec ID : A_AC3
Duration : 1h 39mn
Bit rate mode : Constant
Bit rate : 384 Kbps
Channel(s) : 6 channels
Channel positions : Front: L C R, Side: L R, LFE
Sampling rate : 48.0 KHz
Bit depth : 16 bits
Compression mode : Lossy
Stream size : 273 MiB (7%)
Title : AVO Gavrilov
Language : Russian
Default : No
Forced : No

Audio #3
ID : 4
Format : AC-3
Format/Info : Audio Coding 3
Mode extension : CM (complete main)
Format settings, Endianness : Big
Codec ID : A_AC3
Duration : 1h 39mn
Bit rate mode : Constant
Bit rate : 192 Kbps
Channel(s) : 2 channels
Channel positions : Front: L R
Sampling rate : 48.0 KHz
Bit depth : 16 bits
Compression mode : Lossy
Stream size : 136 MiB (4%)
Title : Original
Language : English
Default : No
Forced : No

Text #1
ID : 5
Format : UTF-8
Codec ID : S_TEXT/UTF8
Codec ID/Info : UTF-8 Plain Text
Language : Russian
Default : No
Forced : No

Text #2
ID : 6
Format : UTF-8
Codec ID : S_TEXT/UTF8
Codec ID/Info : UTF-8 Plain Text
Language : English
Default : No
Forced : No

Menu
00:00:00.000 : en:00:00:00.000
00:07:49.302 : en:00:07:49.302
00:15:57.665 : en:00:15:57.665
00:23:02.006 : en:00:23:02.006
00:31:07.491 : en:00:31:07.491
00:38:18.838 : en:00:38:18.838
00:46:41.841 : en:00:46:41.841
00:52:44.620 : en:00:52:44.620
00:59:25.020 : en:00:59:25.020
01:06:53.092 : en:01:06:53.092
01:15:28.065 : en:01:15:28.065
01:24:07.000 : en:01:24:07.000

--[Information] [16.10.2013 11:17:25] x264 [info]: frame I:990 Avg QP:17.45 size:103971
--[Information] [16.10.2013 11:17:26] x264 [info]: frame P:26273 Avg QP:20.28 size: 33150
--[Information] [16.10.2013 11:17:26] x264 [info]: frame B:115689 Avg QP:20.65 size: 20496
--[Information] [16.10.2013 11:17:26] x264 [info]: consecutive B-frames: 1.0% 0.5% 3.2% 9.7% 16.7% 55.3% 8.1% 2.2% 1.6% 0.7% 0.4% 0.2% 0.2%
--[Information] [16.10.2013 11:17:26] x264 [info]: kb/s:4488.28



Скачать Вещественное.доказательство.Physical.Evidence.(Майкл.Крайтон).[1989.триллер.детектив.криминал.BDRip-AVC].[MVO]+[AVO.(А.Гаврилов)]+[Оригинал]+[Sub]x2.torrent без регистрации
Золото ЗОЛОТАЯ РАЗДАЧА! СКАЧАННОЕ НЕ ЗАСЧИТЫВАЕТСЯ! Золото
Дата: Зарегистрирован   [ Тип: внутренний ] Как тут cкачать?
MAGNET ссылка
MAGNET ссылка


Скачать .torrent

19 KB

Статус: проверено DHT
Скачан: торрент - 107 раз, раздача полностью - 5 раз
Размер: 3,78 GB
Оценка:  - (Голосов: 0)
Поблагодарили: 1
Поделиться ссылкой на эту раздачу с друзьями:
В контактеFacebookОдноклассникиTwitterLivejournalМой МирLiveinternet
 

 
Показать сообщения:    


Вы не можете начинать темы
Вы не можете отвечать на сообщения
Вы не можете редактировать свои сообщения
Вы не можете удалять свои сообщения
Вы не можете голосовать в опросах
Вы не можете прикреплять файлы к сообщениям
Вы можете скачивать файлы