Loading...
Error

Скачать Миротворец / The Peacekeeper (Фредерик Форестье) [1997, боевик, DVDRip] [MVO]+[DVO]x2+[AVO (Андрей Гаврилов)]+[Sub] торрент без регистрации

 
Статистика раздачи
Размер:  1,95 GB   |    Скачан:  115 раз
Сидов:  1  [  0 KB/s  ]  
 
Автор Сообщение

Marsianka

[] 

Миротворец
| The Peacekeeper |

Информация о фильме
Название: Миротворец
Оригинальное название: The Peacekeeper
Год выхода: 1997
Жанр: боевик
Режиссер: Фредерик Форестье
В ролях: Дольф Лундгрен, Майкл Сарразин, Монтель Уильямс, Рой Шайдер, Кристофер Хейердал, Аллен Олтмэн, Мартин Ньюфелд, Моника Шнарре, Тим Пост, Карло Алакки, Чип Чуипка, Рок ЛаФортьен, Гучи Бой, Фил Чи, Серж Уд, Дэвид Френсис, Ларри Дэй, Алан Фоусет, Филип Преттен, Андерсон С. Брэдшоу, Дэйв Николс, Фрэнк Фонтейн, Власта Врана, Майкл Калоз, Мишель Перрон, Марк Камачо, Сьюзэн Гловер, Род Шарлебуа, Аль Дюбуа, Джон Санфорд Мур

О фильме:
Лихой майор американских ВВС, Фрэнк Кросс – почти национальный герой – получает новое назначение: военный помощник президента. Теперь в его руках весь ядерный арсенал США в виде кейса – компьютера с кодами запуска межконтинентальных ракет. К несчастью начало новой работы оказалось неудачным: в результате мастерски осуществленной операции кейс был похищен.



Страна: Канада, США
Студия: Filmline International Inc., Millennium Films, Nu-Image Films, Phoenician Films
Продолжительность: 01:34:31
Перевод: Профессиональный многоголосый, профессиональный двухголосый, авторский

Файл
Кодек: XviD
Качество: DVDRip
Видео: 1597 Кбит/с, 688x528, 25.000 кадр/с
Аудио #1: Русский (AC3, 2 ch, 192 Кбит/с) / Профессиональный многоголосый [ТК "Россия"]
Аудио #2: Русский (AC3, 6 ch, 384 Кбит/с) / Авторский [Андрей Гаврилов]
Аудио #3: Русский (AC3, 2 ch, 192 Кбит/с) / Профессиональный двухголосый [НТВ] – отдельно
Аудио #4: Русский (AC3, 2 ch, 192 Кбит/с) / Профессиональный двухголосый [ДТВ] – отдельно
Аудио #5: Английский (AC3, 6 ch, 384 Кбит/с) – отдельно

Субтитры: Русские

Полное имя : The.Peacekeeper.1997.XviD.DVDRip.avi
Формат : AVI
Формат/Информация : Audio Video Interleave
Размер файла : 1,44 Гбайт
Продолжительность : 1 ч. 34 м.
Общий поток : 2187 Кбит/сек
Программа кодирования : VirtualDubMod 1.5.10.2 (build 2540/release)
Библиотека кодирования : VirtualDubMod build 2540/release

Видео
Идентификатор : 0
Формат : MPEG-4 Visual
Профиль формата : Advanced Simple@L5
Параметр BVOP формата : 1
Параметр QPel формата : Нет
Параметр GMC формата : Без точки перехода
Параметр матрицы формата : Выборочная
Идентификатор кодека : XVID
Идентификатор кодека/Подсказка : XviD
Продолжительность : 1 ч. 34 м.
Битрейт : 1597 Кбит/сек
Ширина : 688 пикселей
Высота : 528 пикселей
Соотношение сторон : 4:3
Частота кадров : 25,000 кадров/сек
Цветовое пространство : YUV
Субдискретизация насыщенности : 4:2:0
Битовая глубина : 8 бит
Тип развёртки : Прогрессивная
Метод сжатия : С потерями
Бит/(Пиксели*Кадры) : 0.176
Размер потока : 1,05 Гбайт (73%)
Библиотека кодирования : XviD 64

Аудио #1
Идентификатор : 1
Формат : AC-3
Формат/Информация : Audio Coding 3
Расширение режима : CM (complete main)
Параметр Endianness формата : Big
Идентификатор кодека : 2000
Продолжительность : 1 ч. 34 м.
Вид битрейта : Постоянный
Битрейт : 192 Кбит/сек
Каналы : 2 канала
Расположение каналов : Front: L R
Частота : 48,0 КГц
Битовая глубина : 16 бит
Метод сжатия : С потерями
Размер потока : 130 Мбайт (9%)
Выравнивание : Разделение по промежуткам
Продолжительность промежутка : 40 мс. (1,00 видеокадр)
Время предзагрузки промежутка : 500 мс.
Заголовок : MVO Россия AC3 2.0 @ 192 kbps

Аудио #2
Идентификатор : 2
Формат : AC-3
Формат/Информация : Audio Coding 3
Расширение режима : CM (complete main)
Параметр Endianness формата : Big
Идентификатор кодека : 2000
Продолжительность : 1 ч. 34 м.
Вид битрейта : Постоянный
Битрейт : 384 Кбит/сек
Каналы : 6 каналов
Расположение каналов : Front: L C R, Side: L R, LFE
Частота : 48,0 КГц
Битовая глубина : 16 бит
Метод сжатия : С потерями
Размер потока : 260 Мбайт (18%)
Выравнивание : Разделение по промежуткам
Продолжительность промежутка : 40 мс. (1,00 видеокадр)
Время предзагрузки промежутка : 500 мс.
Заголовок : AVO Андрей Гаврилов AC3 5.1 @ 384 kbps



Скачать Миротворец.The.Peacekeeper.(Фредерик.Форестье).[1997.боевик.DVDRip].[MVO]+[DVO]x2+[AVO.(Андрей.Гаврилов)]+[Sub].torrent без регистрации
Золото ЗОЛОТАЯ РАЗДАЧА! СКАЧАННОЕ НЕ ЗАСЧИТЫВАЕТСЯ! Золото
Дата: Зарегистрирован   [ Тип: внутренний ] Как тут cкачать?
MAGNET ссылка
MAGNET ссылка


Скачать .torrent

21 KB

Статус: проверено DHT
Скачан: торрент - 115 раз, раздача полностью - 10 раз
Размер: 1,95 GB
Оценка:  - (Голосов: 0)
Поблагодарили: 0
Поделиться ссылкой на эту раздачу с друзьями:
В контактеFacebookОдноклассникиTwitterLivejournalМой МирLiveinternet
 

 
Показать сообщения:    


Вы не можете начинать темы
Вы не можете отвечать на сообщения
Вы не можете редактировать свои сообщения
Вы не можете удалять свои сообщения
Вы не можете голосовать в опросах
Вы не можете прикреплять файлы к сообщениям
Вы можете скачивать файлы