Loading...
Error

Скачать Экстремальные гонки / Tau man ji D / Initial D (Вэй Кеунг Лау, Сиу Фай Мак, Ральф Рикерманн) [2005, боевик, драма, мелодрама, комедия, BDRip] [AVO] (А.Карповский) торрент без регистрации

 
Статистика раздачи
Размер:  745 MB   |    Скачан:  112 раз
Сидов:  1  [  0 KB/s  ]  
 
Автор Сообщение

leon030982

[] 

Экстремальные гонки / Tau man ji D / Initial D


Год выпуска: 2005
Страна: Китай, Гонконг
Жанр: боевик, драма, мелодрама, комедия
Продолжительность: 01:48:52
Перевод: Авторский (одноголосый, закадровый) [Антон Карповский]
Cубтитры: нет

Режиссер: Вэй Кеунг Лау, Сиу Фай Мак, Ральф Рикерманн / Wai Keung Lau, Siu Fai Mak, Ralph Rieckermann

В ролях: Шаун Ю, Эдисон Чен, Джей Чоу, Энтони Вонг, Энн Сузуки, Чэпман То, Цуёши Абе

Описание: Пять лет подряд каждое утро Такуми развозил тофу, гоняя по горным дорогам на папиной старенькой Тойоте. Жизнь его однообразна, друзья не блещут интеллектом. Но работа заставила его стать настоящим профи в крутых виражах на повороте.
И вот случайно ему предлагают поучаствовать в знаменитом нелегальном состязании «Давид и Голиаф» на своей скромненькой на вид Тойоте АЕ86 против Профессиональных ночных гонщиков.
Блестящая, но неожиданная победа над местной звездой Такеши будоражит скрытый в нем до этого дух соревнования, а внезапная слава неизбежно ведет к бесчисленным приключениям, и каждое из них становится все рискованнее и увлекательнее предыдущего…


Качество: BDRip -- спасибо Menen
Формат: AVI
Видео кодек: XviD
Аудио кодек: Mp3
Видео: 688x288 (2.39:1), 24.000 fps, XviD MPEG-4 ~818 kbps avg, 0.17 bit/pixel
Аудио: 48 kHz, MPEG Layer 3, 2 ch, ~128.00 kbps avg
за дорогу Карповского большое спасибо Krasnovv"]
Полное имя : Экстримальные гонки.avi
Формат : AVI
Формат/Информация : Audio Video Interleave
Размер файла : 745 Мбайт
Продолжительность : 1 ч. 48 м.
Общий поток : 956 Кбит/сек
Режиссёр : Menen
Программа кодирования : VirtualDubMod 1.5.10.2 (build 2540/release)
Библиотека кодирования : VirtualDubMod build 2540/release
Видео
Идентификатор : 0
Формат : MPEG-4 Visual
Профиль формата : Advanced Simple@L5
Параметр BVOP формата : 1
Параметр QPel формата : Нет
Параметр GMC формата : Без точки перехода
Параметр матрицы формата : Выборочная
Идентификатор кодека : XVID
Идентификатор кодека/Подсказка : XviD
Продолжительность : 1 ч. 48 м.
Битрейт : 819 Кбит/сек
Ширина : 688 пикселей
Высота : 288 пикселей
Соотношение сторон : 2,40:1
Частота кадров : 24,000 кадра/сек
Цветовое пространство : YUV
Субдискретизация насыщенности : 4:2:0
Битовая глубина : 8 бит
Тип развёртки : Прогрессивная
Метод сжатия : С потерями
Бит/(Пиксели*Кадры) : 0.172
Размер потока : 638 Мбайт (86%)
Библиотека кодирования : XviD 58
Аудио
Идентификатор : 1
Формат : MPEG Audio
Версия формата : Version 1
Профиль формата : Layer 3
Режим : Joint stereo
Расширение режима : MS Stereo
Идентификатор кодека : 55
Идентификатор кодека/Подсказка : MP3
Продолжительность : 1 ч. 48 м.
Вид битрейта : Постоянный
Битрейт : 128 Кбит/сек
Каналы : 2 канала
Частота : 48,0 КГц
Метод сжатия : С потерями
Размер потока : 99,7 Мбайт (13%)
Выравнивание : Соединение по промежуткам
Продолжительность промежутка : 42 мс. (1,00 видеокадр)
Время предзагрузки промежутка : 504 мс.
Библиотека кодирования : LAME3.99r
Настройки программы : -m j -V 4 -q 2 -lowpass 17 -b 128



Скачать Экстремальные.гонки.Tau.man.ji.D.Initial.D.(Вэй.Кеунг.Лау.Сиу.Фай.Мак.Ральф.Рикерманн).[2005.боевик.драма.мелодрама.комедия.BDRip].[AVO].(А.Карповский).torrent без регистрации
Золото ЗОЛОТАЯ РАЗДАЧА! СКАЧАННОЕ НЕ ЗАСЧИТЫВАЕТСЯ! Золото
Дата: Зарегистрирован   [ Тип: внутренний ] Как тут cкачать?
MAGNET ссылка
MAGNET ссылка


Скачать .torrent

15 KB

Статус: проверено DHT
Скачан: торрент - 112 раз, раздача полностью - 25 раз
Размер: 745 MB
Оценка:  - (Голосов: 0)
Поблагодарили: 1
Поделиться ссылкой на эту раздачу с друзьями:
В контактеFacebookОдноклассникиTwitterLivejournalМой МирLiveinternet
 

 
Показать сообщения:    


Вы не можете начинать темы
Вы не можете отвечать на сообщения
Вы не можете редактировать свои сообщения
Вы не можете удалять свои сообщения
Вы не можете голосовать в опросах
Вы не можете прикреплять файлы к сообщениям
Вы можете скачивать файлы