Loading...
Error

Скачать Синдбад: Легенда семи морей / Sinbad of the Seven Seas (Энцо Дж. Кастеллари, Луиджи Коцци) [1989, фэнтези, приключения, BDRip-AVC] [MVO]+[Sub] торрент без регистрации

 
Статистика раздачи
Размер:  2,8 GB   |    Скачан:  111 раз
Сидов:  1  [  0 KB/s  ]  
 
Автор Сообщение

Marsianka

[] 

Страна: Италия, США
Жанр: фэнтези, приключения
Год выпуска: 1989
Продолжительность: 01:33:27
Перевод: Профессиональный (многоголосый, закадровый) + Английский
Субтитры: английские
Режиссер: Энцо Дж. Кастеллари / Enzo G. Castellari, Луиджи Коцци / Luigi Cozzi
В ролях: Лу Ферриньо (Sinbad), Джон Стайнер (Jaffar), Роланд Уайбенга (Alì), Эннио Джиролами (Viking), Харукико Яманоути (Samurai), Иегуда Эфрони (Ahmed), Алессандра Мартинес (Alina), Тиган Клайв (Soukra), Лео Гульотта (Nadir), Стефания Джиролами-Гудвин (Kyra), Дональд Ходсон (Calif), Melonee Rodgers (Queen Farida)
Описание: Синдбад должен найти пять волшебных камней, чтобы освободить город Басру от страшного проклятия. Путешествие приводит его на остров мертвых, где Синдбад сражается с воинами-призраками и, в конце концов, с собственным двойником.

MPAA: PG-13 - Детям до 13 лет просмотр не желателен
Семпл
Качество: BDRip
Контейнер: MKV

Видео: AVC, 1024x554 (16:9), 3900 kbps, 23,976 fps, 0,287 bpp
Аудио №1: русский / AC3 / 2.0 / 48 kHz / 192 kbps
Аудио №2: английский / AC3 / 2.0 / 48 kHz / 192 kbps
Навигация по главам: есть


-----------------------------------------------------------------------------------
x264 [info]: frame I:1595 Avg QP:19.03 size: 64573
x264 [info]: frame P:82495 Avg QP:21.51 size: 25184
x264 [info]: frame B:50358 Avg QP:23.34 size: 10969
-----------------------------------------------------------------------------------
Format : Matroska
Format version : Version 2
File size : 2.80 GiB
Duration : 1h 33mn
Overall bit rate : 4 285 Kbps
Movie name : = Синдбад: Легенда семи морей / Sinbad of the Seven Seas BDRip-AVC by SC Kosmos =
Encoded date : UTC 2015-02-06 17:19:15
Writing application : mkvmerge v3.3.0 ('Language') gebaut am Mar 24 2010 14:59:24
Writing library : libebml v0.8.0 + libmatroska v0.9.0

Video
ID : 1
Format : AVC
Format/Info : Advanced Video Codec
Format profile : High@L4.1
Format settings, CABAC : Yes
Format settings, ReFrames : 10 frames
Codec ID : V_MPEG4/ISO/AVC
Duration : 1h 33mn
Bit rate : 3 900 Kbps
Width : 1 024 pixels
Height : 554 pixels
Display aspect ratio : 16:9
Frame rate : 23.976 fps
Color space : YUV
Chroma subsampling : 4:2:0
Bit depth : 8 bits
Scan type : Progressive
Bits/(Pixel*Frame) : 0.287
Stream size : 2.49 GiB (89%)
Title : Синдбад: Легенда семи морей / Sinbad of the Seven Seas BDRip-AVC by SC Kosmos
Writing library : x264 core 144 r2525 40bb568
Encoding settings : cabac=1 / ref=10 / deblock=1:-2:-2 / analyse=0x3:0x113 / me=umh / subme=11 / psy=1 / psy_rd=1.00:0.05 / mixed_ref=1 / me_range=32 / chroma_me=1 / trellis=2 / 8x8dct=1 / cqm=0 / deadzone=21,11 / fast_pskip=0 / chroma_qp_offset=-3 / threads=12 / lookahead_threads=1 / sliced_threads=0 / nr=0 / decimate=1 / interlaced=0 / bluray_compat=0 / constrained_intra=0 / bframes=10 / b_pyramid=2 / b_adapt=1 / b_bias=0 / direct=3 / weightb=1 / open_gop=0 / weightp=2 / keyint=240 / keyint_min=23 / scenecut=40 / intra_refresh=0 / rc_lookahead=40 / rc=2pass / mbtree=0 / bitrate=3900 / ratetol=1.0 / qcomp=0.60 / qpmin=0 / qpmax=69 / qpstep=4 / cplxblur=20.0 / qblur=0.5 / vbv_maxrate=62500 / vbv_bufsize=78125 / nal_hrd=none / filler=0 / ip_ratio=1.40 / pb_ratio=1.30 / aq=1:1.00
Language : English
Default : No
Forced : No

Audio #1
ID : 2
Format : AC-3
Format/Info : Audio Coding 3
Mode extension : CM (complete main)
Codec ID : A_AC3
Duration : 1h 33mn
Bit rate mode : Constant
Bit rate : 192 Kbps
Channel(s) : 2 channels
Channel positions : Front: L R
Sampling rate : 48.0 KHz
Bit depth : 16 bits
Compression mode : Lossy
Stream size : 128 MiB (4%)
Title : MVO
Language : Russian
Default : Yes
Forced : No

Audio #2
ID : 3
Format : AC-3
Format/Info : Audio Coding 3
Mode extension : CM (complete main)
Codec ID : A_AC3
Duration : 1h 33mn
Bit rate mode : Constant
Bit rate : 192 Kbps
Channel(s) : 2 channels
Channel positions : Front: L R
Sampling rate : 48.0 KHz
Bit depth : 16 bits
Compression mode : Lossy
Stream size : 128 MiB (4%)
Language : English
Default : No
Forced : No

Text
ID : 4
Format : UTF-8
Codec ID : S_TEXT/UTF8
Codec ID/Info : UTF-8 Plain Text
Language : English
Default : No
Forced : No

Menu
00:00:00.000 : en:00:00:00.000
00:02:09.296 : en:00:02:09.296
00:05:48.223 : en:00:05:48.223
00:14:33.915 : en:00:14:33.915
00:20:26.892 : en:00:20:26.892
00:25:13.262 : en:00:25:13.262
00:31:26.384 : en:00:31:26.384
00:38:59.045 : en:00:38:59.045
00:44:17.864 : en:00:44:17.864
00:48:42.086 : en:00:48:42.086
01:01:11.793 : en:01:01:11.793
01:05:34.139 : en:01:05:34.139
01:13:10.886 : en:01:13:10.886
01:18:36.128 : en:01:18:36.128
01:29:09.427 : en:01:29:09.427
01:31:59.806 : en:01:31:59.806




Скачать Синдбад.Легенда.семи.морей.Sinbad.of.the.Seven.Seas.(Энцо.Дж.Кастеллари.Луиджи.Коцци).[1989.фэнтези.приключения.BDRip-AVC].[MVO]+[Sub].torrent без регистрации
Золото ЗОЛОТАЯ РАЗДАЧА! СКАЧАННОЕ НЕ ЗАСЧИТЫВАЕТСЯ! Золото
Дата: Зарегистрирован   [ Тип: внутренний ] Как тут cкачать?
MAGNET ссылка
MAGNET ссылка


Скачать .torrent

15 KB

Статус: проверено DHT
Скачан: торрент - 111 раз, раздача полностью - 7 раз
Размер: 2,8 GB
Оценка:  - (Голосов: 0)
Поблагодарили: 2
Поделиться ссылкой на эту раздачу с друзьями:
В контактеFacebookОдноклассникиTwitterLivejournalМой МирLiveinternet
 

 
Показать сообщения:    


Вы не можете начинать темы
Вы не можете отвечать на сообщения
Вы не можете редактировать свои сообщения
Вы не можете удалять свои сообщения
Вы не можете голосовать в опросах
Вы не можете прикреплять файлы к сообщениям
Вы можете скачивать файлы