Loading...
Error

Скачать Синдбад и Глаз Тигра / Sinbad and the Eye of the Tiger (Сэм Уонамейкер) [1977, фэнтези, боевик, приключения, семейный, DVDRip-AVC] [MVO]+[AVO] торрент без регистрации

 
Статистика раздачи
Размер:  1,46 GB   |    Скачан:  109 раз

Полного источника не было: 21 минута

 
Автор Сообщение

Marsianka

[] 

Страна: США
Производство: Andor Films, Columbia Pictures Corporation
Жанр: фэнтези, боевик, приключения, семейный
Год выпуска: 1977
Продолжительность: 01:52:59

Перевод: Профессиональный (Многоголосый, закадровый) + Авторский одноголосый (Живов)
Оригинальная аудиодорожка: нет
Cубтитры: нет

Режиссер: Сэм Уонамейкер / Sam Wanamaker

В ролях:
Патрик Вейн, Джейн Сеймур, Тэрин Пауэр, Маргарет Уайтинг, Патрик Тротон, Курт Кристиан, Дэмиен Томас, Бернард Кэй...

Описание:
Синдбад держит путь в землю Чарок для того, чтобы просить руки принцессы Фары у ее брата принца Кассима. Однако, приплыв туда, он узнает, что волшебница Зенобия наложила на Кассима проклятие, превратив его в бабуина.
Королева Зенобия сделала это, для того, чтобы калифом смог стать ее сын принц Рафи. Синдбад решает восстановить справедливость и вступает в схватку с волшебницей, то и дело принимающей облик дикой тигрицы…


Исходник: DVD5 R1 (полный вариант фильма - ремастированная версия)
Тип релиза: DVDRip-AVC
Контейнер: MKV

Видео: 704->840x464 (16:9), 23.976 fps, H264 ~ 1458 kbps avg, 0.186 bit/pixel
Аудио: 48 kHz, Dolby AC3 2.0, 192 kbps MVO
Аудио: 48 kHz, Dolby AC3 2.0, 192 kbps AVO (Живов) (Именно в этом переводе, фильм можно было найти, во времена видеосалонов, в 90-ых)

Общее
Полное имя : Sinbad.i.glaz.tigra.1977.DVDRip-AVC_[Youtracker]_by_AVP Studio.mkv
Формат : Matroska
Версия формата : Version 4 / Version 2
Размер файла : 1,46 Гбайт
Продолжительность : 1 ч. 52 м.
Общий поток : 1844 Кбит/сек
Название фильма : Sinbad.i.glaz.tigra.1977.DVDRip-AVC_[Youtracker]_by_AVP Studio
Дата кодирования : UTC 2013-10-01 07:46:56
Программа кодирования : mkvmerge v6.4.1 ('Omega Point') built on Sep 16 2013 22:05:10
Библиотека кодирования : libebml v1.3.0 + libmatroska v1.4.1

Видео
Идентификатор : 1
Формат : AVC
Формат/Информация : Advanced Video Codec
Профиль формата : High@L4.1
Параметр CABAC формата : Да
Параметр ReFrames формата : 10 кадров
Идентификатор кодека : V_MPEG4/ISO/AVC
Продолжительность : 1 ч. 52 м.
Битрейт : 1458 Кбит/сек
Ширина : 704 пикселя
Высота : 464 пикселя
Соотношение сторон : 16:9
Соотношение сторон в оригинале : 16:9
Частота кадров : 23,976 кадра/сек
Цветовое пространство : YUV
Субдискретизация насыщенности : 4:2:0
Битовая глубина : 8 бит
Тип развёртки : Прогрессивная
Бит/(Пиксели*Кадры) : 0.186
Размер потока : 1,12 Гбайт (77%)
Заголовок : Источник DVD
Библиотека кодирования : x264 core 138 r2356 a1d3d17
Настройки программы : cabac=1 / ref=10 / deblock=1:-2:-1 / analyse=0x3:0x113 / me=umh / subme=9 / psy=1 / psy_rd=1.00:0.15 / mixed_ref=1 / me_range=32 / chroma_me=1 / trellis=1 / 8x8dct=1 / cqm=0 / deadzone=21,11 / fast_pskip=0 / chroma_qp_offset=-3 / threads=3 / lookahead_threads=1 / sliced_threads=0 / nr=0 / decimate=1 / interlaced=0 / bluray_compat=0 / constrained_intra=0 / bframes=8 / b_pyramid=2 / b_adapt=1 / b_bias=0 / direct=3 / weightb=1 / open_gop=0 / weightp=2 / keyint=240 / keyint_min=23 / scenecut=40 / intra_refresh=0 / rc_lookahead=60 / rc=2pass / mbtree=1 / bitrate=1458 / ratetol=1.0 / qcomp=0.60 / qpmin=0 / qpmax=69 / qpstep=4 / cplxblur=20.0 / qblur=0.5 / ip_ratio=1.40 / aq=1:1.00
Язык : English
Default : Да
Forced : Нет

Аудио #1
Идентификатор : 2
Формат : AC-3
Формат/Информация : Audio Coding 3
Расширение режима : CM (complete main)
Идентификатор кодека : A_AC3
Продолжительность : 1 ч. 52 м.
Вид битрейта : Постоянный
Битрейт : 192 Кбит/сек
Каналы : 2 канала
Расположение каналов : Front: L R
Частота : 48,0 КГц
Битовая глубина : 16 бит
Метод сжатия : С потерями
Размер потока : 155 Мбайт (10%)
Заголовок : Источник DVD Dolby Digital 2,0 192kb
Язык : Russian
Default : Да
Forced : Нет

Аудио #2
Идентификатор : 3
Формат : AC-3
Формат/Информация : Audio Coding 3
Расширение режима : CM (complete main)
Идентификатор кодека : A_AC3
Продолжительность : 1 ч. 52 м.
Вид битрейта : Постоянный
Битрейт : 192 Кбит/сек
Каналы : 2 канала
Расположение каналов : Front: L R
Частота : 48,0 КГц
Битовая глубина : 16 бит
Метод сжатия : С потерями
Размер потока : 155 Мбайт (10%)
Заголовок : Источник DVD Dolby Digital 2,0 192kb
Язык : Russian
Default : Нет
Forced : Нет

Меню
00:00:00.000 : ru:00:00:00.000000000
00:05:00.000 : :00:05:00.000000000
00:10:00.000 : :00:10:00.000000000
00:15:00.000 : :00:15:00.000000000
00:20:00.000 : :00:20:00.000000000
00:25:00.000 : :00:25:00.000000000
00:30:00.000 : :00:30:00.000000000
00:35:00.000 : :00:35:00.000000000
00:40:00.000 : :00:40:00.000000000
00:45:00.000 : :00:45:00.000000000
00:50:00.000 : :00:50:00.000000000
00:55:00.000 : :00:55:00.000000000
01:00:00.000 : :01:00:00.000000000
01:05:00.000 : :01:05:00.000000000
01:10:00.000 : :01:10:00.000000000
01:15:00.000 : :01:15:00.000000000
01:20:00.000 : :01:20:00.000000000
01:25:00.000 : :01:25:00.000000000
01:30:00.000 : :01:30:00.000000000
01:35:00.000 : :01:35:00.000000000
01:40:00.000 : :01:40:00.000000000
01:45:00.000 : :01:45:00.000000000
01:50:00.000 : :01:50:00.000000000

Съемки картины происходили в трех странах — Иордании, Мальте и Испании



Скачать Синдбад.и.Глаз.Тигра.Sinbad.and.the.Eye.of.the.Tiger.(Сэм.Уонамейкер).[1977.фэнтези.боевик.приключения.семейный.DVDRip-AVC].[MVO]+[AVO].torrent без регистрации
Золото ЗОЛОТАЯ РАЗДАЧА! СКАЧАННОЕ НЕ ЗАСЧИТЫВАЕТСЯ! Золото
Дата: Зарегистрирован   [ Тип: внутренний ] Как тут cкачать?
MAGNET ссылка
MAGNET ссылка


Скачать .torrent

15 KB

Статус: проверено DHT
Скачан: торрент - 109 раз, раздача полностью - 0 раз
Размер: 1,46 GB
Оценка:  - (Голосов: 0)
Поблагодарили: 1
Поделиться ссылкой на эту раздачу с друзьями:
В контактеFacebookОдноклассникиTwitterLivejournalМой МирLiveinternet
 

 
Показать сообщения:    


Вы не можете начинать темы
Вы не можете отвечать на сообщения
Вы не можете редактировать свои сообщения
Вы не можете удалять свои сообщения
Вы не можете голосовать в опросах
Вы не можете прикреплять файлы к сообщениям
Вы можете скачивать файлы