Loading...
Error

Скачать Перелом / Fracture (Грегори Хоблит) [2007, триллер, драма, криминал, детектив, BDRip-AVC] [Dub]+[MVO]+[AVO]+[Оригинал]+[Sub]x2 торрент без регистрации

 
Статистика раздачи
Размер:  3,43 GB   |    Скачан:  111 раз

Полного источника не было: 28 минут

 
Автор Сообщение

Marsianka

[] 

Год выпуска: 2007
Страна: США, Германия
Жанр: триллер, драма, криминал, детектив
Продолжительность: 01:53:27
Перевод: дублированный, профессиональный многоголосый, авторский
Субтитры: русские, английские

Режиссёр: Грегори Хоблит

В ролях: Энтони Хопкинс, Райан Гослинг, Дэвид Стрэтэйрн, Розамунд Пайк, Эмбет Дэвидц, Билли Бёрк, Клифф Кёртис, Фиона Шоу, Боб Гантон, Джош Стэмберг, Ксандер Беркли, Зои Кэзен, Джудит Скотт, Уэнди Катлер, Ларри Салливан, Валери Диллман, Гонсало Менендес, Гэри Сервантес, Купер Торнтон, Лайл Кэйнаус, Сандра Проспер, Моника Гарсиа, Джо Спано, Питер Брейтмайер, Миррон Е. Уиллис, Дэвид Пёрдэм, Джон Литтлфилд, Лу Рейс, Р.Дж. Чэмберс, Юджин Колльер, Том Вирту, Гюнтер Саймон, Фрэнк Торрес, Пэйтон Кох, Купер Кох, Софи Хоблит, Кэролайн Вайнсток, Александр Вайнсток, Майкл Хмуров, Йорго Константин, Алла Корот, Кейли Смит, Кейт Кларк

Описание: Тед Кроуфорд жестоким образом убивает свою жену и спокойно ждёт, когда полиция его арестует. Имея подписанное признание на руках, Уилли Бичум верит, что суд признает подсудимого виновным. Так и случилось бы, но дело принимает новый оборот. Теперь Бичум должен бороться с хитроумным Кроуфордом в отчаянных поисках истины. Кроме того, ему необходимо найти ответ на главный вопрос: как Кроуфорду удаётся уйти от правосудия?..



Качество: BDRip-AVC
Формат: MKV
Видео кодек: H.264
Аудио кодек: AC3
Видео: 2128 Кбит/с, 1024x436, 23.976 кадра/с, 0.199 bpp
Аудио 1: русский, AC3, 640 kbps, 6 ch, 48 kHz [дублированный]
Аудио 2: русский, AC3, 448 kbps, 6 ch, 48 kHz [профессиональный многоголосый]
Аудио 3: русский, AC3, 384 kbps, 6 ch, 48 kHz [авторский, Юрий Живов]
Аудио 4: английский, AC3, 640 kbps, 6 ch, 48 kHz [оригинал]

Имеются неименованные главы/чаптеры.
frame I:1397 Avg QP:15.47 size: 57241
frame P:32460 Avg QP:16.83 size: 23170
frame B:129363 Avg QP:18.83 size: 8113

Общее
Уникальный идентификатор : 220177890591362669011481601878105165719 (0xA5A4B8214E0CE1A0B9578ED7FF0A8F97)
Полное имя : D:VideoPerelom.2007.BDRip-AVC.mkv
Формат : Matroska
Версия формата : Version 4 / Version 2
Размер файла : 3,43 Гбайт
Продолжительность : 1 ч. 53 м.
Общий поток : 4326 Кбит/сек
Дата кодирования : UTC 2015-02-28 14:37:34
Программа кодирования : mkvmerge v7.6.0 ('Garden of Dreams') 64bit built on Feb 8 2015 13:04:34
Библиотека кодирования : libebml v1.3.1 + libmatroska v1.4.2
_STATISTICS_WRITING_APP : mkvmerge v7.6.0 ('Garden of Dreams') 64bit built on Feb 8 2015 13:04:34
_STATISTICS_WRITING_DATE_UTC : 2015-02-28 14:37:34
_STATISTICS_TAGS : BPS DURATION NUMBER_OF_FRAMES NUMBER_OF_BYTES
DURATION : 01:50:37.504000000
NUMBER_OF_FRAMES : 1311
NUMBER_OF_BYTES : 49707

Видео
Идентификатор : 1
Формат : AVC
Формат/Информация : Advanced Video Codec
Профиль формата : High@L4.1
Параметр CABAC формата : Да
Параметр ReFrames формата : 9 кадров
Идентификатор кодека : V_MPEG4/ISO/AVC
Продолжительность : 1 ч. 53 м.
Битрейт : 2128 Кбит/сек
Ширина : 1024 пикселя
Высота : 436 пикселей
Соотношение сторон : 2,35:1
Режим частоты кадров : Постоянный
Частота кадров : 23,976 кадра/сек
Цветовое пространство : YUV
Субдискретизация насыщенности : 4:2:0
Битовая глубина : 8 бит
Тип развёртки : Прогрессивная
Бит/(Пиксели*Кадры) : 0.199
Размер потока : 1,69 Гбайт (49%)
Заголовок : BDRip -- STarankov
Библиотека кодирования : x264 core 142 r2431 ac76440
Настройки программы : cabac=1 / ref=9 / deblock=1:-2:-2 / analyse=0x3:0x113 / me=umh / subme=9 / psy=1 / psy_rd=1.00:0.15 / mixed_ref=1 / me_range=32 / chroma_me=1 / trellis=2 / 8x8dct=1 / cqm=0 / deadzone=21,11 / fast_pskip=1 / chroma_qp_offset=-3 / threads=6 / lookahead_threads=1 / sliced_threads=0 / nr=0 / decimate=1 / interlaced=0 / bluray_compat=0 / constrained_intra=0 / bframes=8 / b_pyramid=2 / b_adapt=2 / b_bias=0 / direct=3 / weightb=1 / open_gop=0 / weightp=2 / keyint=230 / keyint_min=23 / scenecut=40 / intra_refresh=0 / rc_lookahead=40 / rc=crf / mbtree=0 / crf=18.5 / qcomp=0.60 / qpmin=0 / qpmax=69 / qpstep=4 / vbv_maxrate=50000 / vbv_bufsize=62500 / crf_max=0.0 / nal_hrd=none / filler=0 / ip_ratio=1.40 / pb_ratio=1.30 / aq=1:1.00
Язык : English
Default : Да
Forced : Нет
DURATION : 01:53:27.634000000
NUMBER_OF_FRAMES : 163220
NUMBER_OF_BYTES : 1881548514
_STATISTICS_WRITING_APP : mkvmerge v7.6.0 ('Garden of Dreams') 64bit built on Feb 8 2015 13:04:34
_STATISTICS_WRITING_DATE_UTC : 2015-02-28 14:37:34
_STATISTICS_TAGS : BPS DURATION NUMBER_OF_FRAMES NUMBER_OF_BYTES

Аудио #1
Идентификатор : 2
Формат : AC-3
Формат/Информация : Audio Coding 3
Расширение режима : CM (complete main)
Параметр Endianness формата : Big
Идентификатор кодека : A_AC3
Продолжительность : 1 ч. 53 м.
Вид битрейта : Постоянный
Битрейт : 640 Кбит/сек
Каналы : 6 каналов
Расположение каналов : Front: L C R, Side: L R, LFE
Частота : 48,0 КГц
Битовая глубина : 16 бит
Метод сжатия : С потерями
Размер потока : 519 Мбайт (15%)
Заголовок : DUB
Язык : Russian
Default : Да
Forced : Нет

Аудио #2
Идентификатор : 3
Формат : AC-3
Формат/Информация : Audio Coding 3
Расширение режима : CM (complete main)
Параметр Endianness формата : Big
Идентификатор кодека : A_AC3
Продолжительность : 1 ч. 53 м.
Вид битрейта : Постоянный
Битрейт : 448 Кбит/сек
Каналы : 6 каналов
Расположение каналов : Front: L C R, Side: L R, LFE
Частота : 48,0 КГц
Битовая глубина : 16 бит
Метод сжатия : С потерями
Размер потока : 364 Мбайт (10%)
Заголовок : MVO
Язык : Russian
Default : Нет
Forced : Нет

Аудио #3
Идентификатор : 4
Формат : AC-3
Формат/Информация : Audio Coding 3
Расширение режима : CM (complete main)
Параметр Endianness формата : Big
Идентификатор кодека : A_AC3
Продолжительность : 1 ч. 53 м.
Вид битрейта : Постоянный
Битрейт : 384 Кбит/сек
Каналы : 6 каналов
Расположение каналов : Front: L C R, Side: L R, LFE
Частота : 48,0 КГц
Битовая глубина : 16 бит
Метод сжатия : С потерями
Размер потока : 312 Мбайт (9%)
Заголовок : AVO (Юрий Живов)
Язык : Russian
Default : Нет
Forced : Нет

Аудио #4
Идентификатор : 5
Формат : AC-3
Формат/Информация : Audio Coding 3
Расширение режима : CM (complete main)
Параметр Endianness формата : Big
Идентификатор кодека : A_AC3
Продолжительность : 1 ч. 53 м.
Вид битрейта : Постоянный
Битрейт : 640 Кбит/сек
Каналы : 6 каналов
Расположение каналов : Front: L C R, Side: L R, LFE
Частота : 48,0 КГц
Битовая глубина : 16 бит
Метод сжатия : С потерями
Размер потока : 519 Мбайт (15%)
Заголовок : Original
Язык : English
Default : Нет
Forced : Нет

Текст #1
Идентификатор : 6
Формат : UTF-8
Идентификатор кодека : S_TEXT/UTF8
Идентификатор кодека/Информация : UTF-8 Plain Text
Заголовок : русский
Язык : Russian
Default : Нет
Forced : Нет

Текст #2
Идентификатор : 7
Формат : UTF-8
Идентификатор кодека : S_TEXT/UTF8
Идентификатор кодека/Информация : UTF-8 Plain Text
Заголовок : английский
Default : Нет
Forced : Нет

Меню
00:00:00.000 : :Chapter 01
00:07:10.847 : :Chapter 02
00:12:22.741 : :Chapter 03
00:18:11.548 : :Chapter 04
00:26:42.891 : :Chapter 05
00:32:41.542 : :Chapter 06
00:37:43.678 : :Chapter 07
00:43:38.324 : :Chapter 08
00:52:11.710 : :Chapter 09
01:00:17.280 : :Chapter 10
01:07:02.184 : :Chapter 11
01:13:37.955 : :Chapter 12
01:19:31.683 : :Chapter 13
01:28:27.927 : :Chapter 14
01:39:11.487 : :Chapter 15
01:48:56.488 : :Chapter 16
01:53:27.425 : :Chapter 17



Скачать Перелом.Fracture.(Грегори.Хоблит).[2007.триллер.драма.криминал.детектив.BDRip-AVC].[Dub]+[MVO]+[AVO]+[Оригинал]+[Sub]x2.torrent без регистрации
Золото ЗОЛОТАЯ РАЗДАЧА! СКАЧАННОЕ НЕ ЗАСЧИТЫВАЕТСЯ! Золото
Дата: Зарегистрирован   [ Тип: внутренний ] Как тут cкачать?
MAGNET ссылка
MAGNET ссылка


Скачать .torrent

18 KB

Статус: проверено DHT
Скачан: торрент - 111 раз, раздача полностью - 27 раз
Размер: 3,43 GB
Оценка:  - (Голосов: 0)
Поблагодарили: 2
Поделиться ссылкой на эту раздачу с друзьями:
В контактеFacebookОдноклассникиTwitterLivejournalМой МирLiveinternet
 

 
Показать сообщения:    


Вы не можете начинать темы
Вы не можете отвечать на сообщения
Вы не можете редактировать свои сообщения
Вы не можете удалять свои сообщения
Вы не можете голосовать в опросах
Вы не можете прикреплять файлы к сообщениям
Вы можете скачивать файлы