Loading...
Error

Скачать Бесстыжие / Бесстыдники / Shameless (US) (сезон 03) (Марк Майлод и др.) [2013, драма, комедия, HDRip] [DVO (AlexFilm)] торрент без регистрации

 
Статистика раздачи
Размер:  8,65 GB   |    Скачан:  185 раз
Сидов:  20  [  0 KB/s  ]   Личеров:  4  [  0 KB/s  ]  
 
Автор Сообщение

МихаНЕзатор

[] 

Бесстыжие / Бесстыдники / Shameless (US)


Страна: США, Showtime / Warner Bros. Television / John Wells Productions
Год выпуска: 2013
Жанр: драма, комедия
Продолжительность: 12 x ~ 00:52:00
Перевод: Профессиональный (двухголосый, закадровый) AlexFilm
Оригинальная аудиодорожка: нет
Субтитры: нет

Режиссер: Марк Майлод / Mark Mylod, Мими Ледер / Mimi Leder

В ролях: Уильям Х. Мэйси / William H. Macy, Эмми Россам / Emmy Rossum, Джастин Чэтвин / Justin Chatwin, Итэн Каткоски / Ethan Cutkosky, Шанола Хэмптон / Shanola Hampton, Стив Хоуи / Steve Howey, Джереми Аллен Уайт / Jeremy Allen White

Описание: Американский ремейк британского сериала, повествующий о взбалмошной многодетной семье Галлахеров и их соседях, которые веселятся, попадают в самые невероятные ситуации и пытаются выжить в этом мире всеми возможными средствами, но при этом как можно меньше работая.



Качество: HDRip [BDRip 1080p]
Формат: AVI
Видео кодек: XviD
Аудио кодек: AC3
Видео: 688x384 (1.79:1), 23.976 fps, XviD build 73 ~1573 kbps avg, 0.25 bit/pixel
Аудио: 48 kHz, AC3 Dolby Digital, 2/0 (L,R) ch, ~192 kbps
АНОНСЫ ПОПУЛЯРНЫХ РАЗДАЧ
D:Мои рипыShameless.s03.hdrip.dexter_lexShameless.s03e01.hdrip.dexter_lex.avi
General
Complete name : D:Мои рипыShameless.s03.hdrip.dexter_lexShameless.s03e01.hdrip.dexter_lex.avi
Format : AVI
Format/Info : Audio Video Interleave
File size : 745 MiB
Duration : 58mn 39s
Overall bit rate : 1 775 Kbps
Writing application : VirtualDubMod 1.5.10.3 | www.virtualdub-fr.org || (build 2550/release)
Writing library : VirtualDubMod build 2550/release
Video #0
ID : 0
Format : MPEG-4 Visual
Format profile : Advanced Simple@L5
Format settings, BVOP : 1
Format settings, QPel : No
Format settings, GMC : No warppoints
Format settings, Matrix : Custom
Codec ID : XVID
Codec ID/Hint : XviD
Duration : 58mn 39s
Bit rate : 1 574 Kbps
Width : 688 pixels
Height : 384 pixels
Display aspect ratio : 16:9
Frame rate : 23.976 fps
Color space : YUV
Chroma subsampling : 4:2:0
Bit depth : 8 bits
Scan type : Progressive
Compression mode : Lossy
Bits/(Pixel*Frame) : 0.248
Stream size : 660 MiB (89%)
Writing library : XviD 73
Audio #1
ID : 1
Format : AC-3
Format/Info : Audio Coding 3
Mode extension : CM (complete main)
Codec ID : 2000
Duration : 58mn 39s
Bit rate mode : Constant
Bit rate : 192 Kbps
Channel(s) : 2 channels
Channel positions : Front: L R
Sampling rate : 48.0 KHz
Bit depth : 16 bits
Compression mode : Lossy
Stream size : 80.6 MiB (11%)
Alignment : Split accross interleaves
Interleave, duration : 42 ms (1.00 video frame)
Interleave, preload duration : 500 ms

01. El Gran Canon / Большой каньон
02. The American Dream / Американская мечта
03. May I Trim Your Hedges / Можно подстричь твою изгородь
04. The Helpful Gallaghers / Галлагеры спешат на помощь
05. The Sins of My Caretaker / Грехи моего опекуна
06. Cascading Failures / Череда неудач
07. A Long Way from Home / Долгий путь домой
08. Where There’s a Will / Было бы завещание
09. Frank the Plumber / Фрэнк водопроводчик
10. Civil Wrongs / Гражданские бесправия
11. Order Room Service / Обслуживание в номер
12. Survival of the Fittest / Выживает сильнейший



Скачать Бесстыжие.Бесстыдники.Shameless.(US).(сезон.03).(Марк.Майлод.и.др.).[2013.драма.комедия.HDRip].[DVO.(AlexFilm)].torrent без регистрации
Золото ЗОЛОТАЯ РАЗДАЧА! СКАЧАННОЕ НЕ ЗАСЧИТЫВАЕТСЯ! Золото
Дата: Зарегистрирован   [ Тип: внешний ] Как тут cкачать?
MAGNET ссылка
MAGNET ссылка


Скачать .torrent

45 KB

Статус: проверено DHT
Скачан: торрент - 185 раз, раздача полностью - 179 раз
Размер: 8,65 GB
Оценка:  5 (Голосов: 1)
Поблагодарили: 1
Поделиться ссылкой на эту раздачу с друзьями:
В контактеFacebookОдноклассникиTwitterLivejournalМой МирLiveinternet
 

 
Показать сообщения:    


Вы не можете начинать темы
Вы не можете отвечать на сообщения
Вы не можете редактировать свои сообщения
Вы не можете удалять свои сообщения
Вы не можете голосовать в опросах
Вы не можете прикреплять файлы к сообщениям
Вы можете скачивать файлы