Loading...
Error

Скачать Убийства - мой конёк, дорогая / Mord ist mein Geschäft, Liebling (Себастьян Нимэнн) [2009, комедия, мелодрама, криминал, BDRip-AVC] [DVO]+[Оригинал]+[Sub]x2 торрент без регистрации

 
Статистика раздачи
Размер:  2,61 GB   |    Скачан:  146 раз
Сидов:  1  [  0 KB/s  ]  
 
Автор Сообщение

Marsianka

[] 

Год выпуска: 2009
Страна: Германия
Жанр: комедия, мелодрама, криминал
Продолжительность: 01:48:47
Перевод: профессиональный двухголосый
Субтитры: русские, английские

Режиссёр: Себастьян Нимэнн

В ролях: Рик Каваниан, Нора Чирнер, Кристиан Трамиц, Янек Рике, Ганс-Майкл Реберг, Маттиас Целик, Вольф Рот, Франко Неро, Гюнтер Кауфманн, Вольфганг Вёльц, Людгер Пистор, Дорис Кунстманн, Бад Спенсер, Оскар О. Санчез, Чи Ле, Ник Донг-Сик, Джасмин Швирс, Флорентина Ламе, Аксель Штайн, Гельмут Рюль, Клаудио Кайоло, Лара-Изабель Рентинк, Мирослав Навратил, Зденек Дворачек, Джеймс Батлер, Бернд Хоффманн, Георг Альфред Уитнер, Матиас Мюссе

Описание: Тони Рикарделли в целом доволен своей работой — он киллер. А это значит — хорошая зарплата, гибкий график и общение с новыми людьми. Для полного счастья ему не хватает одного — жениться. При выполнении очередного заказа он знакомится с Юлией, и чтобы быть к ней ближе, он вынужден выдавать себя за убитого им мистера Пуцо...



Качество: BDRip (AVC)
Формат: MKV
Видео кодек: H.264
Аудио кодек: AC3
Видео: 2721 Кбит/с, 1024x436, 23.976 кадра/с, 0.254 bpp
Аудио 1: русский, AC3, 192 kbps, 2 ch, 48 kHz [профессиональный двухголосый, Red Media]
Аудио 2: немецкий, AC3, 448 kbps, 6 ch, 48 kHz [оригинал]

Имеются неименованные главы/чаптеры.
frame I:2076 Avg QP:17.50 size: 69882
frame P:33479 Avg QP:17.89 size: 27420
frame B:120945 Avg QP:20.44 size: 10012

Общее
Уникальный идентификатор : 180506177854198914351496238713360303336 (0x87CC39ADC2C2043EB1BC7E3518FF44E8)
Полное имя : D:VideoUbijstva-moj konek,dorogaja.2009.BDRip-AVC.mkv
Формат : Matroska
Версия формата : Version 4 / Version 2
Размер файла : 2,61 Гбайт
Продолжительность : 1 ч. 48 м.
Общий поток : 3429 Кбит/сек
Дата кодирования : UTC 2015-03-01 03:50:05
Программа кодирования : mkvmerge v7.6.0 ('Garden of Dreams') 64bit built on Feb 8 2015 13:04:34
Библиотека кодирования : libebml v1.3.1 + libmatroska v1.4.2
DURATION : 01:42:26.723000000
NUMBER_OF_FRAMES : 1258
NUMBER_OF_BYTES : 40764
_STATISTICS_WRITING_APP : mkvmerge v7.6.0 ('Garden of Dreams') 64bit built on Feb 8 2015 13:04:34
_STATISTICS_WRITING_DATE_UTC : 2015-03-01 03:50:05
_STATISTICS_TAGS : BPS DURATION NUMBER_OF_FRAMES NUMBER_OF_BYTES

Видео
Идентификатор : 1
Формат : AVC
Формат/Информация : Advanced Video Codec
Профиль формата : High@L4.1
Параметр CABAC формата : Да
Параметр ReFrames формата : 9 кадров
Идентификатор кодека : V_MPEG4/ISO/AVC
Продолжительность : 1 ч. 48 м.
Битрейт : 2721 Кбит/сек
Ширина : 1024 пикселя
Высота : 436 пикселей
Соотношение сторон : 2,35:1
Режим частоты кадров : Постоянный
Частота кадров : 23,976 кадра/сек
Цветовое пространство : YUV
Субдискретизация насыщенности : 4:2:0
Битовая глубина : 8 бит
Тип развёртки : Прогрессивная
Бит/(Пиксели*Кадры) : 0.254
Размер потока : 2,07 Гбайт (79%)
Заголовок : BDRip -- STarankov
Библиотека кодирования : x264 core 142 r2431 ac76440
Настройки программы : cabac=1 / ref=9 / deblock=1:-2:-2 / analyse=0x3:0x113 / me=umh / subme=9 / psy=1 / psy_rd=1.00:0.15 / mixed_ref=1 / me_range=32 / chroma_me=1 / trellis=2 / 8x8dct=1 / cqm=0 / deadzone=21,11 / fast_pskip=1 / chroma_qp_offset=-3 / threads=6 / lookahead_threads=1 / sliced_threads=0 / nr=0 / decimate=1 / interlaced=0 / bluray_compat=0 / constrained_intra=0 / bframes=8 / b_pyramid=2 / b_adapt=2 / b_bias=0 / direct=3 / weightb=1 / open_gop=0 / weightp=2 / keyint=230 / keyint_min=23 / scenecut=40 / intra_refresh=0 / rc_lookahead=40 / rc=crf / mbtree=0 / crf=19.0 / qcomp=0.60 / qpmin=0 / qpmax=69 / qpstep=4 / vbv_maxrate=50000 / vbv_bufsize=62500 / crf_max=0.0 / nal_hrd=none / filler=0 / ip_ratio=1.40 / pb_ratio=1.30 / aq=1:1.00
Язык : German
Default : Да
Forced : Нет
DURATION : 01:48:47.354000000
NUMBER_OF_FRAMES : 156500
NUMBER_OF_BYTES : 2273990518
_STATISTICS_WRITING_APP : mkvmerge v7.6.0 ('Garden of Dreams') 64bit built on Feb 8 2015 13:04:34
_STATISTICS_WRITING_DATE_UTC : 2015-03-01 03:50:05
_STATISTICS_TAGS : BPS DURATION NUMBER_OF_FRAMES NUMBER_OF_BYTES

Аудио #1
Идентификатор : 2
Формат : AC-3
Формат/Информация : Audio Coding 3
Расширение режима : CM (complete main)
Параметр Endianness формата : Big
Идентификатор кодека : A_AC3
Продолжительность : 1 ч. 48 м.
Вид битрейта : Постоянный
Битрейт : 192 Кбит/сек
Каналы : 2 канала
Расположение каналов : Front: L R
Частота : 48,0 КГц
Битовая глубина : 16 бит
Метод сжатия : С потерями
Размер потока : 149 Мбайт (6%)
Заголовок : DVO (Red Media)
Язык : Russian
Default : Да
Forced : Нет

Аудио #2
Идентификатор : 3
Формат : AC-3
Формат/Информация : Audio Coding 3
Расширение режима : CM (complete main)
Параметр Endianness формата : Big
Идентификатор кодека : A_AC3
Продолжительность : 1 ч. 48 м.
Вид битрейта : Постоянный
Битрейт : 448 Кбит/сек
Каналы : 6 каналов
Расположение каналов : Front: L C R, Side: L R, LFE
Частота : 48,0 КГц
Битовая глубина : 16 бит
Метод сжатия : С потерями
Размер потока : 349 Мбайт (13%)
Заголовок : Original
Язык : German
Default : Нет
Forced : Нет

Текст #1
Идентификатор : 4
Формат : UTF-8
Идентификатор кодека : S_TEXT/UTF8
Идентификатор кодека/Информация : UTF-8 Plain Text
Заголовок : русский
Язык : Russian
Default : Нет
Forced : Нет

Текст #2
Идентификатор : 5
Формат : UTF-8
Идентификатор кодека : S_TEXT/UTF8
Идентификатор кодека/Информация : UTF-8 Plain Text
Заголовок : английский
Default : Нет
Forced : Нет

Меню
00:00:00.000 : :Chapter 01
00:09:07.171 : :Chapter 02
00:20:04.328 : :Chapter 03
00:31:08.241 : :Chapter 04
00:36:31.981 : :Chapter 05
00:44:41.969 : :Chapter 06
00:57:10.385 : :Chapter 07
01:08:08.459 : :Chapter 08
01:13:19.103 : :Chapter 09
01:24:59.385 : :Chapter 10
01:38:28.527 : :Chapter 11
01:42:29.226 : :Chapter 12
01:48:46.811 : :Chapter 13



Скачать Убийства.-.мой.конёк.дорогая.Mord.ist.mein.Geschäft.Liebling.(Себастьян.Нимэнн).[2009.комедия.мелодрама.криминал.BDRip-AVC].[DVO]+[Оригинал]+[Sub]x2.torrent без регистрации
Золото ЗОЛОТАЯ РАЗДАЧА! СКАЧАННОЕ НЕ ЗАСЧИТЫВАЕТСЯ! Золото
Дата: Зарегистрирован   [ Тип: внутренний ] Как тут cкачать?
MAGNET ссылка
MAGNET ссылка


Скачать .torrent

14 KB

Статус: проверено DHT
Скачан: торрент - 146 раз, раздача полностью - 5 раз
Размер: 2,61 GB
Оценка:  - (Голосов: 0)
Поблагодарили: 1
Поделиться ссылкой на эту раздачу с друзьями:
В контактеFacebookОдноклассникиTwitterLivejournalМой МирLiveinternet
 

 
Показать сообщения:    


Вы не можете начинать темы
Вы не можете отвечать на сообщения
Вы не можете редактировать свои сообщения
Вы не можете удалять свои сообщения
Вы не можете голосовать в опросах
Вы не можете прикреплять файлы к сообщениям
Вы можете скачивать файлы