Loading...
Error

Скачать Пара Тузов в Запасе: Покерная Тройка / Another Pair of Aces: Three of a Kind (Билл Биксби / Bill Bixby) [1991, драма, криминал, DVDRip] [DVO] (REN-TV) + [AVO] (Ю.Живов) + [Orig] (Eng) торрент без регистрации

 
Статистика раздачи
Размер:  966 MB   |    Скачан:  108 раз
Сидов:  1  [  0 KB/s  ]  
 
Автор Сообщение

leon030982

[] 

Пара Тузов в Запасе: Покерная Тройка / Another Pair of Aces: Three of a Kind

Год выпуска: 1991

Страна: США
Жанр: драма, криминал
Продолжительность: 01:29:05
Перевод 1: Профессиональный (двухголосый, закадровый) - REN-TV
Перевод 2: Авторский (одноголосый, закадровый) - Юрий Живов
Cубтитры: нет
Оригинальная аудиодорожка: английский

Режиссер: Билл Биксби / Bill Bixby

В ролях: Уилли Нельсон (Billy Roy Rodriguez), Крис Кристофферсон (Rip Metcalf), Джоан Северанс (Susan Davis), Дэнни Камин (Sheriff), Кен Фармер (Hoffner), Рип Торн (Captain Jack Parsons), Сэмми Оллред (Radio Personality), Билл Балис (Richard Slate), Харви Кристиансен (Jerry Walker), Бернард Энджел (Foley)

Описание: Когда суд за неимением улик освободил из-под стражи преступника Слэйда пуля возмездия настигла-таки убийцу. Однако в его смерти подозревается невиновный — капитан техасских рэйнджеров Джек Парсонс которого и пытаются защитить помощник Джека карточный шулер и сотрудница ФБР. Заодно они находят и настоящего убийцу.


MPAA: R - Лицам до 17 лет обязательно присутствие взрослого.
-> //SAMPLE//

Качество: DVDRip
Формат: AVI
Видео кодек: XvID
Аудио кодек: AC3
Видео: XviD, 720x544 (4:3), 25.000 fps, 867 kbps avg
Аудио #1:48 khz, AC3 Dolby Digital, 2/0 (L,R) ch, ~192 kbps [REN-TV] [VHSRip]
Аудио #2:48 khz, AC3 Dolby Digital, 2/0 (L,R) ch, ~192 kbps [Живов] [VHSRip] отдельным файлом
Аудио #3:48 khz, AC3 Dolby Digital, 2/0 (L,R) ch, ~192 kbps [Английский] отдельным файлом

Цитата:

За исходник видео с СГ большое спасибо edich2.
За запись перевода с телеканала REN-TV в 90-х годах через видеомагнитофон и оцифровку с видеокассеты большое спасибо Sp1end1d.
За оцифровку перевода Живова с видеокассеты большое спасибо Nekontroliruemij_devil.
Синхронизация переводов - JUSTKANT.

В переводе REN-TV три вставки Живова в тех диалогах, где звук прерывался: 00:02:23 - 00:02:34; 00:13:53 - 00:14:00 и 00:34:05 - 00:34:19.
На русский язык фильм озвучен телекомпанией REN-TV.
Текст читали Игорь Тарадайкин и Людмила Ильина.
Общее
Полное имя : D:\Релизы На Трекере\Пара Тузов в Запасе - Покерная Тройка (REN-TV + Живов + Original Eng)\Пара Тузов в Запасе - Покерная Тройка (REN-TV).avi
Формат : AVI
Формат/Информация : Audio Video Interleave
Размер файла : 681 Мбайт
Продолжительность : 1 ч. 29 м.
Общий поток : 1068 Кбит/сек
Программа кодирования : VirtualDubMod 1.5.10.2 (build 2540/release)
Библиотека кодирования : VirtualDubMod build 2540/release
Видео
Идентификатор : 0
Формат : MPEG-4 Visual
Профиль формата : Advanced Simple@L5
Параметр BVOP формата : 1
Параметр QPel формата : Нет
Параметр GMC формата : Без точки перехода
Параметр матрицы формата : Выборочная
Идентификатор кодека : XVID
Идентификатор кодека/Подсказка : XviD
Продолжительность : 1 ч. 29 м.
Битрейт : 867 Кбит/сек
Ширина : 720 пикселей
Высота : 544 пикселя
Соотношение сторон : 4:3
Частота кадров : 25,000 кадров/сек
Цветовое пространство : YUV
Субдискретизация насыщенности : 4:2:0
Битовая глубина : 8 бит
Тип развёртки : Прогрессивная
Метод сжатия : С потерями
Бит/(Пиксели*Кадры) : 0.089
Размер потока : 552 Мбайт (81%)
Библиотека кодирования : XviD 1.2.0.dev47 (UTC 2006-11-01)
Аудио
Идентификатор : 1
Формат : AC-3
Формат/Информация : Audio Coding 3
Расширение режима : CM (complete main)
Параметр Endianness формата : Big
Идентификатор кодека : 2000
Продолжительность : 1 ч. 29 м.
Вид битрейта : Постоянный
Битрейт : 192 Кбит/сек
Каналы : 2 канала
Расположение каналов : Front: L R
Частота : 48,0 КГц
Битовая глубина : 16 бит
Метод сжатия : С потерями
Размер потока : 122 Мбайт (18%)
Выравнивание : Разделение по промежуткам
Продолжительность промежутка : 40 мс. (1,00 видеокадр)
Время предзагрузки промежутка : 500 мс.
Язык : English



Скачать Пара.Тузов.в.Запасе.Покерная.Тройка.Another.Pair.of.Aces.Three.of.a.Kind.(Билл.Биксби.Bill.Bixby).[1991.драма.криминал.DVDRip].[DVO].(REN-TV).+.[AVO].(Ю.Живов).+.[Orig].(Eng).torrent без регистрации
Золото ЗОЛОТАЯ РАЗДАЧА! СКАЧАННОЕ НЕ ЗАСЧИТЫВАЕТСЯ! Золото
Дата: Зарегистрирован   [ Тип: внутренний ] Как тут cкачать?
MAGNET ссылка
MAGNET ссылка


Скачать .torrent

20 KB

Статус: проверено DHT
Скачан: торрент - 108 раз, раздача полностью - 2 раз
Размер: 966 MB
Оценка:  - (Голосов: 0)
Поблагодарили: 1
Поделиться ссылкой на эту раздачу с друзьями:
В контактеFacebookОдноклассникиTwitterLivejournalМой МирLiveinternet
 

 
Показать сообщения:    


Вы не можете начинать темы
Вы не можете отвечать на сообщения
Вы не можете редактировать свои сообщения
Вы не можете удалять свои сообщения
Вы не можете голосовать в опросах
Вы не можете прикреплять файлы к сообщениям
Вы можете скачивать файлы