Loading...
Error

Скачать Предчувствие / Восприятие / Perception (03x06-14 из 15) (Крис Мисиано и др.) [2014, криминальный триллер, психологический детектив, WEB-DL] [720p] [MVO (Padabajour)] торрент без регистрации

 
Статистика раздачи
Размер:  10,85 GB   |    Скачан:  126 раз

Полного источника не было: 19 минут

 
Автор Сообщение

МихаНЕзатор

[] 

Информация о фильме
Название: Восприятие
Оригинальное название: Perception
Год выхода: 2014-2015
Жанр: Криминальный триллер, психологический детектив
Режиссер: Крис Мисиано, Грег Биман, Кеннет Биллер

В ролях: Эрик Маккормак, Рэйчел Ли Кук, Келли Роуэн, Эрджей Смит, Джонатан Скарф, Кристофер Чен, Лиза Бейнс, Джимми Беннетт, Бриджет Риган, ЛеВар Бертон

О фильме: Доктор Дэниел Пирс — талантливый , но эксцентричный нейробиолог, которого пригласили в ФБР для оказания помощи в расследовании наиболее сложных дел. Доктор Пирс работает в тесном сотрудничестве с Кейт Моретти, бывшей студенткой, которая и завербовала его для работы с Бюро. Также в команде есть Макс Левики — ассистент доктора Пирса и Натали Винсент — его "лучший" друг.
Разгадывать сложнейшие загадки доктору помогают его галлюцинации, ведь Пирс страдает шизофренией и его болезнь бывает крайне полезна в расследовании сложнейших дел.



Страна: США
Продолжительность: 42:00
Перевод: Любительский (многоголосый закадровый)

Файл
Кодек: Xvid
Качество: WEBRip 720p
Видео: Xvid, 1280x720, 23.97, 4 227 Kbps
Звук: mp3, 48000Hz, 2 ch, 160 kbps , 0.171 kbps

Релиз от: Padabajour

АНОНСЫ ПОПУЛЯРНЫХ РАЗДАЧ


Торрент обновлён, добавлена 14-я серия!

Video
ID : 0
Format : MPEG-4 Visual
Format profile : Advanced Simple@L5
Format settings, BVOP : 2
Format settings, QPel : No
Format settings, GMC : No warppoints
Format settings, Matrix : Default (H.263)
Muxing mode : Packed bitstream
Codec ID : XVID
Codec ID/Hint : XviD
Duration : 40mn 33s
Bit rate : 4 227 Kbps
Width : 1 280 pixels
Height : 720 pixels
Display aspect ratio : 16:9
Frame rate : 23.976 fps
Color space : YUV
Chroma subsampling : 4:2:0
Bit depth : 8 bits
Scan type : Progressive
Compression mode : Lossy
Bits/(Pixel*Frame) : 0.191
Stream size : 1.20 GiB (96%)
Writing library : XviD 64

Audio
ID : 1
Format : MPEG Audio
Format version : Version 1
Format profile : Layer 3
Mode : Joint stereo
Codec ID : 55
Codec ID/Hint : MP3
Duration : 40mn 33s
Bit rate mode : Constant
Bit rate : 160 Kbps
Channel(s) : 2 channels
Sampling rate : 48.0 KHz
Compression mode : Lossy
Stream size : 46.4 MiB (4%)
Alignment : Split accross interleaves
Interleave, duration : 42 ms (1.00 video frame)
Interleave, preload duration : 500 ms



Скачать Предчувствие.Восприятие.Perception.(03x06-14.из.15).(Крис.Мисиано.и.др.).[2014.криминальный.триллер.психологический.детектив.WEB-DL].[720p].[MVO.(Padabajour)].torrent без регистрации
Золото ЗОЛОТАЯ РАЗДАЧА! СКАЧАННОЕ НЕ ЗАСЧИТЫВАЕТСЯ! Золото
Дата: Зарегистрирован   [ Тип: внутренний ] Как тут cкачать?
MAGNET ссылка
MAGNET ссылка


Скачать .torrent

55 KB

Статус: проверено DHT
Скачан: торрент - 126 раз, раздача полностью - 4 раз
Размер: 10,85 GB
Оценка:  - (Голосов: 0)
Поблагодарили: 0
Поделиться ссылкой на эту раздачу с друзьями:
В контактеFacebookОдноклассникиTwitterLivejournalМой МирLiveinternet
 

 
Показать сообщения:    


Вы не можете начинать темы
Вы не можете отвечать на сообщения
Вы не можете редактировать свои сообщения
Вы не можете удалять свои сообщения
Вы не можете голосовать в опросах
Вы не можете прикреплять файлы к сообщениям
Вы можете скачивать файлы