Loading...
Error

Скачать Последний человек на Земле / The Last Man on Earth (сезон 01) (Фил Лорд, Кристофер Миллер) [2015, фантастика, боевик, комедия, WEB-DLRip] [400p] DVO (Кубик в Кубе) + Original торрент без регистрации

 
Статистика раздачи
Размер:  5,74 GB   |    Скачан:  2192 раза
Сидов:  1  [  0 KB/s  ]  
 
Автор Сообщение

МихаНЕзатор

[] 

Последний человек на Земле / The Last Man on Earth


Год выпуска: 2015
Страна: США
Жанр: фантастика, боевик, комедия
Продолжительность: 00:25:00
Перевод: Профессиональный (двухголосый закадровый) (Кубик в Кубе)
Режиссёр: Фил Лорд / Phil Lord, Кристофер Миллер / Christopher Miller

В ролях: Уилл Форте, Кристен Шол, Александра Даддарио, Клеопатра Коулман, Дженьюэри Джонс, Мэл Родригез и др.

Описание: Фил Миллер когда-то был просто обычным парнем, который любил свою семью и ненавидел свою работу в банке - теперь он последняя надежда человечества. Найдет ли он когда-нибудь другого живого человека на планете?

Релиз:

Работа с видео: whip93
Работа со звуком: messafan
Перевод: El_Brujo

Качество: WEB-DLRip
Формат: AVI
Видео: Xvid, 720x400 (16:9), 23.976 fps, ~ 2000 kbps
Аудио 1: AC3, 48 kHz, 6 ch, 384 kbps (русский)
Аудио 2: AC3, 48 kHz, 6 ch, 384 kbps (английский)
Субтитры: отсутствуют

АНОНСЫ ПОПУЛЯРНЫХ РАЗДАЧ


Торрент обновлён, добавлена 13-я серия!
Внимание! Раздача ведётся путём добавления новых серий; при каждом добавлении создаётся новый торрент. Чтобы начать докачку новой серии, пользователям необходимо сделать следующее:
(1) остановить скачивание,
(2) удалить старый торрент у себя из клиента (старые серии удалять не надо),
(3) скачать новый торрент и запустить его у себя в клиенте вместо старого, при этом указать клиенту путь в старую папку куда и должно происходить скачивание новых серий.
Ваш клиент при этом должен произвести хеширование (проверку) старой папки (если не производит сам - помогите ему сделать это), и будет докачивать только те серии которых у вас ещё нет. Старые серии при этом не удаляются, а продолжают раздаваться!
Если вы уже удалили старые серии, то предотвратить повторную закачку старых серий можно, отжав галочку в соответствующих местах при запуске нового торрента. По возможности, желательно не удалять старые серии как можно дольше чтобы релизер не столько продолжал раздавать старые серии, а смог сконцентрироваться на новых.
Complete name : D:\Фильмы\The Last Man on Earth Season 1 CasStudio.TV\The.Last.Man.on.Earth.S01E01-02.WEB-DLRip.CasStudio.TV.avi
Format : AVI
Format/Info : Audio Video Interleave
File size : 858 MiB
Duration : 43mn 43s
Overall bit rate : 2 745 Kbps
Writing application : VirtualDubMod 1.5.10.3 | www.virtualdub-fr.org || (build 2550/release)
Writing library : VirtualDubMod build 2550/release
Video
ID : 0
Format : MPEG-4 Visual
Format profile : Advanced Simple@L5
Format settings, BVOP : 1
Format settings, QPel : No
Format settings, GMC : No warppoints
Format settings, Matrix : Default (MPEG)
Codec ID : XVID
Codec ID/Hint : XviD
Duration : 43mn 43s
Bit rate : 1 963 Kbps
Width : 720 pixels
Height : 400 pixels
Display aspect ratio : 16:9
Frame rate : 23.976 fps
Color space : YUV
Chroma subsampling : 4:2:0
Bit depth : 8 bits
Scan type : Progressive
Compression mode : Lossy
Bits/(Pixel*Frame) : 0.284
Stream size : 614 MiB (72%)
Writing library : XviD 65
Audio #1
ID : 1
Format : AC-3
Format/Info : Audio Coding 3
Mode extension : CM (complete main)
Format settings, Endianness : Big
Codec ID : 2000
Duration : 43mn 43s
Bit rate mode : Constant
Bit rate : 384 Kbps
Channel(s) : 6 channels
Channel positions : Front: L C R, Side: L R, LFE
Sampling rate : 48.0 KHz
Bit depth : 16 bits
Compression mode : Lossy
Delay relative to video : 10ms
Stream size : 120 MiB (14%)
Alignment : Split accross interleaves
Interleave, duration : 42 ms (1.00 video frame)
Interleave, preload duration : 500 ms
Audio #2
ID : 2
Format : AC-3
Format/Info : Audio Coding 3
Mode extension : CM (complete main)
Format settings, Endianness : Big
Codec ID : 2000
Duration : 43mn 43s
Bit rate mode : Constant
Bit rate : 384 Kbps
Channel(s) : 6 channels
Channel positions : Front: L C R, Side: L R, LFE
Sampling rate : 48.0 KHz
Bit depth : 16 bits
Compression mode : Lossy
Delay relative to video : 10ms
Stream size : 120 MiB (14%)
Alignment : Split accross interleaves
Interleave, duration : 42 ms (1.00 video frame)
Interleave, preload duration : 500 ms



Скачать Последний.человек.на.Земле.The.Last.Man.on.Earth.(сезон.01).(Фил.Лорд.Кристофер.Миллер).[2015.фантастика.боевик.комедия.WEB-DLRip].[400p].DVO.(Кубик.в.Кубе).+.Original.torrent без регистрации
Золото ЗОЛОТАЯ РАЗДАЧА! СКАЧАННОЕ НЕ ЗАСЧИТЫВАЕТСЯ! Золото
Дата: Зарегистрирован   [ Тип: внутренний ] Как тут cкачать?
MAGNET ссылка
MAGNET ссылка


Скачать .torrent

16 KB

Статус: проверено DHT
Скачан: торрент - 2192 раз, раздача полностью - 1 раз
Размер: 5,74 GB
Оценка:  - (Голосов: 0)
Поблагодарили: 1
Поделиться ссылкой на эту раздачу с друзьями:
В контактеFacebookОдноклассникиTwitterLivejournalМой МирLiveinternet
 

 
Показать сообщения:    


Вы не можете начинать темы
Вы не можете отвечать на сообщения
Вы не можете редактировать свои сообщения
Вы не можете удалять свои сообщения
Вы не можете голосовать в опросах
Вы не можете прикреплять файлы к сообщениям
Вы можете скачивать файлы