Loading...
Error

Скачать Контрабандист / Закупщик оружия / The Gunrunner (Нардо Кастилло / Nardo Castillo) [1989, драма, криминал, DVDRip] 2x[AVO] (А.Гаврилов, Л.Володарский) торрент без регистрации

 
Статистика раздачи
Размер:  1,37 GB   |    Скачан:  115 раз

Полного источника не было: 29 минут

 
Автор Сообщение

leon030982

[] 

Контрабандист / Закупщик оружия / The Gunrunner



Год выпуска: 1989
Страна: Канада, США
Жанр: драма, криминал
Продолжительность: 01:18:51
Перевод 1: Авторский (одноголосый, закадровый) [Андрей Гаврилов]
Перевод 2: Авторский (одноголосый, закадровый) [Леонид Володарский]
Cубтитры: нет

Режиссер: Нардо Кастилло / Nardo Castillo

В ролях: Кевин Костнер, Сара Ботсфорд, Пол Соулз, Рон Лиа, Алин Ван Дин, Мартин Неуфелд, Дэвид Коннер, Джон Готье, Стив Майкл

Описание: Гангстерская история одного благородного человека по имени Тед Бобин, который избрал нелегкую миссию по доставке оружия в Китай, чтобы помочь местному сопротивлению и заодно отомстить за смерть своей возлюбленной. Прибыв в родной Монреаль, Тед находит брата Джорджа в бедности, а родной дом — в запустении.
В поисках оружия и больших денег он встречается с обольстительной Мод. Эта опасная женщина открывает ему дорогу в криминальный мир, и Тед невольно становится участником трагических событий, связанных с противостоянием богатейших людей города — мэра Уилсона и бизнесмена Лойбмана.



Качество видео: DVDRip
Формат видео: AVI
Видео кодек: XviD
Аудио кодек: AC3
Видео: 704x528 (1.33:1), 25 fps, XviD build 73 ~2082 kbps avg, 0.22 bit/pixel
Аудио#1: 48 kHz, AC3 Dolby Digital, 2/0 (L,R) ch, ~192 kbps - Гаврилов
Аудио#2: 48 kHz, AC3 Dolby Digital, 2/0 (L,R) ch, ~192 kbps - Володарский

Цитата:

Фильм, снятый еще в 1984 г., пролежал на полках 5 лет. Если бы не наступивший звездный час славы Кевина Костнера, то еще неизвестно, каким долгим мог бы стать путь этой картины к зрителю…
за дороги спасибо budulai-8
Полное имя : Контрабандист.avi
Формат : AVI
Формат/Информация : Audio Video Interleave
Размер файла : 1,37 Гбайт
Продолжительность : 1 ч. 18 м.
Общий поток : 2482 Кбит/сек
Программа кодирования : VirtualDubMod 1.5.10.2 (build 2540/release)
Видео
Идентификатор : 0
Формат : MPEG-4 Visual
Профиль формата : Advanced Simple@L5
Параметр BVOP формата : 2
Параметр QPel формата : Нет
Параметр GMC формата : Без точки перехода
Параметр матрицы формата : Выборочная
Идентификатор кодека : XVID
Идентификатор кодека/Подсказка : XviD
Продолжительность : 1 ч. 18 м.
Битрейт : 2084 Кбит/сек
Ширина : 704 пикселя
Высота : 528 пикселей
Соотношение сторон : 4:3
Частота кадров : 25,000 кадров/сек
Цветовое пространство : YUV
Субдискретизация насыщенности : 4:2:0
Битовая глубина : 8 бит
Тип развёртки : Прогрессивная
Метод сжатия : С потерями
Бит/(Пиксели*Кадры) : 0.224
Размер потока : 1,15 Гбайт (84%)
Библиотека кодирования : XviD 73
Аудио #1
Идентификатор : 1
Формат : AC-3
Формат/Информация : Audio Coding 3
Расширение режима : CM (complete main)
Параметр Endianness формата : Big
Идентификатор кодека : 2000
Продолжительность : 1 ч. 18 м.
Вид битрейта : Постоянный
Битрейт : 192 Кбит/сек
Каналы : 2 канала
Расположение каналов : Front: L R
Частота : 48,0 КГц
Битовая глубина : 16 бит
Метод сжатия : С потерями
Размер потока : 108 Мбайт (8%)
Выравнивание : Разделение по промежуткам
Продолжительность промежутка : 40 мс. (1,00 видеокадр)
Время предзагрузки промежутка : 500 мс.
Заголовок : Гаврилов
Аудио #2
Идентификатор : 2
Формат : AC-3
Формат/Информация : Audio Coding 3
Расширение режима : CM (complete main)
Параметр Endianness формата : Big
Идентификатор кодека : 2000
Продолжительность : 1 ч. 18 м.
Вид битрейта : Постоянный
Битрейт : 192 Кбит/сек
Каналы : 2 канала
Расположение каналов : Front: L R
Частота : 48,0 КГц
Битовая глубина : 16 бит
Метод сжатия : С потерями
Размер потока : 108 Мбайт (8%)
Выравнивание : Разделение по промежуткам
Продолжительность промежутка : 40 мс. (1,00 видеокадр)
Время предзагрузки промежутка : 500 мс.
Заголовок : Володарский



Скачать Контрабандист.Закупщик.оружия.The.Gunrunner.(Нардо.Кастилло.Nardo.Castillo).[1989.драма.криминал.DVDRip].2x[AVO].(А.Гаврилов.Л.Володарский).torrent без регистрации
Золото ЗОЛОТАЯ РАЗДАЧА! СКАЧАННОЕ НЕ ЗАСЧИТЫВАЕТСЯ! Золото
Дата: Зарегистрирован   [ Тип: внутренний ] Как тут cкачать?
MAGNET ссылка
MAGNET ссылка


Скачать .torrent

14 KB

Статус: проверено DHT
Скачан: торрент - 115 раз, раздача полностью - 4 раз
Размер: 1,37 GB
Оценка:  - (Голосов: 0)
Поблагодарили: 0
Поделиться ссылкой на эту раздачу с друзьями:
В контактеFacebookОдноклассникиTwitterLivejournalМой МирLiveinternet
 

 
Показать сообщения:    


Вы не можете начинать темы
Вы не можете отвечать на сообщения
Вы не можете редактировать свои сообщения
Вы не можете удалять свои сообщения
Вы не можете голосовать в опросах
Вы не можете прикреплять файлы к сообщениям
Вы можете скачивать файлы