Loading...
Error

Скачать Последний человек на Земле / The Last Man on Earth (сезон 01) (Фил Лорд и др.) [2015, фантастика, комедия, WEB-DLRip] [DVO (Кубик в кубе)] торрент без регистрации

 
Статистика раздачи
Размер:  3,55 GB   |    Скачан:  6305 раз
Сидов:  1  [  0 KB/s  ]  
 
Автор Сообщение

МихаНЕзатор

[] 

Информация о фильме
Название: Последний человек на Земле
Оригинальное название: The Last Man on Earth
Год выхода: 2015
Жанр: фантастика, комедия
Режиссер: Фил Лорд, Кристофер Миллер, Питер Атенсио
В ролях: Клеопатра Коулмэн, Дженьюэри Джонс, Мэл Родригез, Кристен Шаал, Уилл Форте
О фильме:
Фил Миллер последний человек на Земле в 2022 году, который ищет по всем США любые признаки человеческой жизни после неизвестного события, уничтожившего всех людей на планете, включая его семью и сотрудников банка, где он работал. Теперь он последняя надежда человечества. Найдет ли он когда-нибудь другого живого человека на планете?

Страна: США
Студия: Lord Miller, 20th Century Fox Television
Продолжительность: ~ 00:22:00 серия
Перевод: Профессиональный двухголосый закадровый | Кубик в кубе
Качество: WEB-DLRip
Кодек: XviD
Видео: 720x400 (16:9), 23,976 fps, ~1400 kbps
Звук:
MP3, 48 kHz, 2 ch, 128 kbps
MP3, 48 kHz, 2 ch, 128 kbps
Субтитры: отсутствуют

Рип: OlOuHbKa Перевод и озвучка:

АНОНСЫ ПОПУЛЯРНЫХ РАЗДАЧ


Торрент обновлён, добавлена 13-я серия!

01. Выживший в Тусоне / Alive in Tucson
02. Слон в комнате / The Elephant in the Room
03. Изюмные фрикадельки и свадебные колокольчики / Raisin Balls and Wedding Bells
04. Сладенькая Мелисса / Sweet Melissa
05. Задай трёпку скунсу / Dunk the Skunk
06. Какой-то тупой толстяк / Some Friggin' Fat Dude
07. Она сводит меня с ума / She Drives Me Crazy
08. Переезжаю / Mooovin' In
09. Заново / The Do-Over
10. Розыгрыш запросто / Pranks for Nothin'
11. Переехали в Тампу
12. Тендимэн сможет
13. К чёрту Луну
Формат : AVI
Формат/Информация : Audio Video Interleave
Размер файла : 551 Мбайт
Продолжительность : 43 м.
Общий поток : 1762 Кбит/сек
Программа кодирования : VirtualDubMod 1.5.10.3 (build 2550/release)
Библиотека кодирования : VirtualDubMod build 2550/release

Видео
Идентификатор : 0
Формат : MPEG-4 Visual
Профиль формата : Advanced Simple@L5
Параметр BVOP формата : 1
Параметр QPel формата : Нет
Параметр GMC формата : Без точки перехода
Параметр матрицы формата : Default (MPEG)
Идентификатор кодека : XVID
Идентификатор кодека/Подсказка : XviD
Продолжительность : 43 м.
Битрейт : 1492 Кбит/сек
Ширина : 720 пикселей
Высота : 400 пикселей
Соотношение сторон : 16:9
Частота кадров : 23,976 кадра/сек
Цветовое пространство : YUV
Субдискретизация насыщенности : 4:2:0
Битовая глубина : 8 бит
Тип развёртки : Прогрессивная
Метод сжатия : С потерями
Бит/(Пиксели*Кадры) : 0.216
Размер потока : 467 Мбайт (85%)
Библиотека кодирования : XviD 73

Аудио #1
Идентификатор : 1
Формат : MPEG Audio
Версия формата : Version 1
Профиль формата : Layer 3
Режим : Joint stereo
Расширение режима : MS Stereo
Идентификатор кодека : 55
Идентификатор кодека/Подсказка : MP3
Продолжительность : 43 м.
Вид битрейта : Постоянный
Битрейт : 128 Кбит/сек
Каналы : 2 канала
Частота : 48,0 КГц
Метод сжатия : С потерями
Размер потока : 40,0 Мбайт (7%)
Выравнивание : Соединение по промежуткам
Продолжительность промежутка : 42 мс. (1,00 видеокадр)
Время предзагрузки промежутка : 504 мс.

Аудио #2
Идентификатор : 2
Формат : MPEG Audio
Версия формата : Version 1
Профиль формата : Layer 3
Режим : Joint stereo
Расширение режима : MS Stereo
Идентификатор кодека : 55
Идентификатор кодека/Подсказка : MP3
Продолжительность : 43 м.
Вид битрейта : Постоянный
Битрейт : 128 Кбит/сек
Каналы : 2 канала
Частота : 48,0 КГц
Метод сжатия : С потерями
Размер потока : 40,0 Мбайт (7%)
Выравнивание : Соединение по промежуткам
Продолжительность промежутка : 42 мс. (1,00 видеокадр)
Время предзагрузки промежутка : 504 мс.



Скачать Последний.человек.на.Земле.The.Last.Man.on.Earth.(сезон.01).(Фил.Лорд.и.др.).[2015.фантастика.комедия.WEB-DLRip].[DVO.(Кубик.в.кубе)].torrent без регистрации
Золото ЗОЛОТАЯ РАЗДАЧА! СКАЧАННОЕ НЕ ЗАСЧИТЫВАЕТСЯ! Золото
Дата: Зарегистрирован   [ Тип: внутренний ] Как тут cкачать?
MAGNET ссылка
MAGNET ссылка


Скачать .torrent

20 KB

Статус: проверено DHT
Скачан: торрент - 6305 раз, раздача полностью - 126 раз
Размер: 3,55 GB
Оценка:  4 (Голосов: 1)
Поблагодарили: 6
Поделиться ссылкой на эту раздачу с друзьями:
В контактеFacebookОдноклассникиTwitterLivejournalМой МирLiveinternet
 

 
Показать сообщения:    


Вы не можете начинать темы
Вы не можете отвечать на сообщения
Вы не можете редактировать свои сообщения
Вы не можете удалять свои сообщения
Вы не можете голосовать в опросах
Вы не можете прикреплять файлы к сообщениям
Вы можете скачивать файлы