Loading...
Error

Скачать Продюсеры / Весна для Гитлера / The Producers (Мэл Брукс / Mel Brooks) [1968, комедия, BDRip] [AVO] (А. Михалев) + [Sub] (Rus) торрент без регистрации

 
Статистика раздачи
Размер:  1,46 GB   |    Скачан:  217 раз

Полного источника не было: 23 минуты

 
Автор Сообщение

leon030982

[] 


Продюсеры / Весна для Гитлера
The Producers


Год выпуска: 1968
Страна: США
Жанр: Комедия
Продолжительность: 01:29:22
Перевод: Авторский (одноголосый, закадровый) [А. Михалев]
Cубтитры: русские (неотключаемые на отсутствующие на DVD сцены)

Режиссер: Мэл Брукс / Mel Brooks

В ролях: Зеро Мостел, Джин Уайлдер, Дик Шоун, Кеннет Марс, Ли Мередит, Кристофер Хьюитт, Андреас Вуцинас, Эстель Уинвуд, Рене Тейлор, Дэвид Пэч

Описание: Неудачливый бродвейский театральный продюсер уже довольно долгое время перебивается «с хлеба на квас», старается срубить «копейку» даже в самых невероятных ситуациях… хотя, по большей части, получается так себе.
Однажды на его горизонте появляется затюканный и невзрачный бухгалтеришка, который подкидывает сумасшедшую на первый взгляд идею, реализация которой позволит им перестать думать о будущем в мрачных, апокалиптических тонах…



Исходник видео:BDRemux 1080p
Качество видео: BDRip
Видео кодек: XviD
Аудио кодек: AC3
Формат видео: AVI
Видео: 720х384 (1:85:1), XviD build 73 ~ 2 137 kbps, 23.976 fps, 0.32 bit/pixel
Аудио: 48 kHz, AC3 Dolby Digital, 2/0 (L,R), ~192.00 kbps avg (А. Михалев)

Автри рипа -- ochkarik1

Цитата:

Звуковая дорожка с переводом Алексея Михалева появилась благодаря vad_dikk.
Format : AVI
Format/Info : Audio Video Interleave
File size : 1.46 GiB
Duration : 1h 29mn
Overall bit rate : 2 338 Kbps
Writing application : VirtualDubMod 1.5.10.3 | www.virtualdub-fr.org || (build 2550/release)
Writing library : VirtualDubMod build 2550/release
Video
ID : 0
Format : MPEG-4 Visual
Format profile : Advanced Simple@L5
Format settings, BVOP : 1
Format settings, QPel : No
Format settings, GMC : No warppoints
Format settings, Matrix : Custom
Codec ID : XVID
Codec ID/Hint : XviD
Duration : 1h 29mn
Bit rate : 2 137 Kbps
Width : 720 pixels
Height : 384 pixels
Display aspect ratio : 1.85:1
Frame rate : 23.976 fps
Color space : YUV
Chroma subsampling : 4:2:0
Bit depth : 8 bits
Scan type : Progressive
Compression mode : Lossy
Bits/(Pixel*Frame) : 0.322
Stream size : 1.33 GiB (91%)
Writing library : XviD 73
Audio
ID : 1
Format : AC-3
Format/Info : Audio Coding 3
Mode extension : CM (complete main)
Format settings, Endianness : Big
Codec ID : 2000
Duration : 1h 29mn
Bit rate mode : Constant
Bit rate : 192 Kbps
Channel count : 2 channels
Channel positions : Front: L R
Sampling rate : 48.0 KHz
Bit depth : 16 bits
Compression mode : Lossy
Stream size : 123 MiB (8%)
Alignment : Split accross interleaves
Interleave, duration : 42 ms (1.00 video frame)
Interleave, preload duration : 500 ms
Title : Михалев (vad_dikk)




Скачать Продюсеры.Весна.для.Гитлера.The.Producers.(Мэл.Брукс.Mel.Brooks).[1968.комедия.BDRip].[AVO].(А.Михалев).+.[Sub].(Rus).torrent без регистрации
Золото ЗОЛОТАЯ РАЗДАЧА! СКАЧАННОЕ НЕ ЗАСЧИТЫВАЕТСЯ! Золото
Дата: Зарегистрирован   [ Тип: внутренний ] Как тут cкачать?
MAGNET ссылка
MAGNET ссылка


Скачать .torrent

15 KB

Статус: проверено DHT
Скачан: торрент - 217 раз, раздача полностью - 11 раз
Размер: 1,46 GB
Оценка:  5 (Голосов: 1)
Поблагодарили: 2
Поделиться ссылкой на эту раздачу с друзьями:
В контактеFacebookОдноклассникиTwitterLivejournalМой МирLiveinternet
 

 
Показать сообщения:    


Вы не можете начинать темы
Вы не можете отвечать на сообщения
Вы не можете редактировать свои сообщения
Вы не можете удалять свои сообщения
Вы не можете голосовать в опросах
Вы не можете прикреплять файлы к сообщениям
Вы можете скачивать файлы