Loading...
Error

Скачать Джерри Магуайер / Jerry Maguire (Кэмерон Кроу) [1996, комедия, мелодрама, драма, спорт, BDRip-AVC] [Dub]+[Оригинал]+[Sub]x2 торрент без регистрации

 
Статистика раздачи
Размер:  4,06 GB   |    Скачан:  230 раз
Сидов:  1  [  0 KB/s  ]  
 
Автор Сообщение

Marsianka

[] 

Информация о фильме
Название: Джерри Магуайер
Оригинальное название: Jerry Maguire
Год выхода: 1996
Жанр: комедия, мелодрама, драма, спорт
Режиссер: Кэмерон Кроу
В ролях: Том Круз, Кьюба Гудинг мл., Рене Зелльвегер, Келли Престон, Джерри О`Коннелл, Джей Мор, Бонни Хант, Реджина Кинг, Джонатан Липники, Тодд Луизо, Марк Пеллингто

О фильме:
Уволенный за критику начальства, спортивный агент Джерри Магуайер решает создать свою фирму. Лишь два человека верят в него — влюбленная в Магуайера Дороти и Род Тидвелл — талантливый спортсмен, но нахальный и крайне злобный тип. Но обстоятельства не останавливают Джерри — он уверен в себе и твердо знает, чего хочет. И все могло бы быть как нельзя лучше, если бы не его бывшие коллеги. Для них все методы хороши — особенно если нужно доказать правдолюбцу, кто правит бал. И Джерри Магуайер знает — если он проиграет, то встать на ноги ему не удастся никогда.



Страна: США
Студия: Gracie Films, TriStar Pictures
Продолжительность: 02:18:33
Перевод: Дублированный (BD CEE)

Файл
Кодек: MPEG-4 AVC
Качество: BDRip-AVC
Видео: 3300 Кбит/с, 1024x552
Звук: Русский, английский (AC3, 6 ch, 448 Кбит/с)
Субтитры: Русские, английские
Рип от StarbirS

Aудио#1: Russian: 48 kHz, AC3, 3/2 (L,C,R,l,r) + LFE ch, ~448.00 kbps avg - Дублированный (BD CEE)
Aудио#2: English: 48 kHz, AC3, 3/2 (L,C,R,l,r) + LFE ch, ~448.00 kbps avg - Оригинал

Субтитры: Русские, английские

x264 [info]: frame I:1696 Avg QP:17.10 size: 85144
x264 [info]: frame P:41731 Avg QP:19.61 size: 30135
x264 [info]: frame B:155894 Avg QP:21.67 size: 12990
Формат : Matroska
Версия формата : Version 2
Размер файла : 4,06 Гбайт
Продолжительность : 2 ч. 18 м.
Общий поток : 4196 Кбит/сек
Название фильма : Jerry.Maguire.1996.x264.D.BDRip.(AVC)
Дата кодирования : UTC 2015-03-05 10:27:02
Программа кодирования : mkvmerge v7.7.0 ('Six Voices') 64bit built on Feb 28 2015 23:39:33
Библиотека кодирования : libebml v1.3.1 + libmatroska v1.4.2

Видео
Идентификатор : 1
Формат : AVC
Формат/Информация : Advanced Video Codec
Профиль формата : High@L4.1
Параметр CABAC формата : Да
Параметр ReFrames формата : 13 кадров
Идентификатор кодека : V_MPEG4/ISO/AVC
Продолжительность : 2 ч. 18 м.
Битрейт : 3300 Кбит/сек
Ширина : 1024 пикселя
Высота : 552 пикселя
Соотношение сторон : 1,85:1
Режим частоты кадров : Постоянный
Частота кадров : 23,976 кадра/сек
Цветовое пространство : YUV
Субдискретизация насыщенности : 4:2:0
Битовая глубина : 8 бит
Тип развёртки : Прогрессивная
Бит/(Пиксели*Кадры) : 0.243
Размер потока : 3,11 Гбайт (77%)
Заголовок : Jerry.Maguire.1996.x264.D.BDRip.(AVC).by.StarbirS
Библиотека кодирования : x264 core 144 r2525 40bb568
Настройки программы : cabac=1 / ref=13 / deblock=1:-3:-3 / analyse=0x3:0x133 / me=umh / subme=10 / psy=1 / psy_rd=1.12:0.00 / mixed_ref=1 / me_range=32 / chroma_me=1 / trellis=2 / 8x8dct=1 / cqm=0 / deadzone=21,11 / fast_pskip=0 / chroma_qp_offset=-2 / threads=12 / lookahead_threads=2 / sliced_threads=0 / nr=0 / decimate=1 / interlaced=0 / bluray_compat=0 / constrained_intra=0 / bframes=9 / b_pyramid=2 / b_adapt=2 / b_bias=0 / direct=3 / weightb=1 / open_gop=1 / weightp=2 / keyint=240 / keyint_min=23 / scenecut=40 / intra_refresh=0 / rc=2pass / mbtree=0 / bitrate=3300 / ratetol=1.0 / qcomp=0.65 / qpmin=0 / qpmax=69 / qpstep=4 / cplxblur=20.0 / qblur=0.5 / ip_ratio=1.40 / pb_ratio=1.30 / aq=1:0.90
Язык : English
Default : Да
Forced : Нет

Аудио #1
Идентификатор : 2
Формат : AC-3
Формат/Информация : Audio Coding 3
Расширение режима : CM (complete main)
Параметр Endianness формата : Big
Идентификатор кодека : A_AC3
Продолжительность : 2 ч. 18 м.
Вид битрейта : Постоянный
Битрейт : 448 Кбит/сек
Каналы : 6 каналов
Расположение каналов : Front: L C R, Side: L R, LFE
Частота : 48,0 КГц
Битовая глубина : 16 бит
Метод сжатия : С потерями
Размер потока : 444 Мбайт (11%)
Заголовок : Дублированный
Язык : Russian
Default : Да
Forced : Нет

Аудио #2
Идентификатор : 3
Формат : AC-3
Формат/Информация : Audio Coding 3
Расширение режима : CM (complete main)
Параметр Endianness формата : Big
Идентификатор кодека : A_AC3
Продолжительность : 2 ч. 18 м.
Вид битрейта : Постоянный
Битрейт : 448 Кбит/сек
Каналы : 6 каналов
Расположение каналов : Front: L C R, Side: L R, LFE
Частота : 48,0 КГц
Битовая глубина : 16 бит
Метод сжатия : С потерями
Размер потока : 444 Мбайт (11%)
Язык : English
Default : Нет
Forced : Нет

Текст #1
Идентификатор : 4
Формат : UTF-8
Идентификатор кодека : S_TEXT/UTF8
Идентификатор кодека/Информация : UTF-8 Plain Text
Язык : Russian
Default : Да
Forced : Нет

Текст #2
Идентификатор : 5
Формат : UTF-8
Идентификатор кодека : S_TEXT/UTF8
Идентификатор кодека/Информация : UTF-8 Plain Text
Язык : English
Default : Нет
Forced : Нет

Меню
00:00:00.000 : en:00:00:00.000
00:12:44.806 : en:00:12:44.806
00:20:46.203 : en:00:20:46.203
00:29:14.336 : en:00:29:14.336
00:36:32.524 : en:00:36:32.524
00:44:46.142 : en:00:44:46.142
00:59:38.283 : en:00:59:38.283
01:06:39.871 : en:01:06:39.871
01:18:15.524 : en:01:18:15.524
01:28:05.906 : en:01:28:05.906
01:34:01.427 : en:01:34:01.427
01:37:51.324 : en:01:37:51.324
01:45:43.629 : en:01:45:43.629
01:55:45.939 : en:01:55:45.939
02:01:03.798 : en:02:01:03.798
02:10:15.391 : en:02:10:15.391



Скачать Джерри.Магуайер.Jerry.Maguire.(Кэмерон.Кроу).[1996.комедия.мелодрама.драма.спорт.BDRip-AVC].[Dub]+[Оригинал]+[Sub]x2.torrent без регистрации
Золото ЗОЛОТАЯ РАЗДАЧА! СКАЧАННОЕ НЕ ЗАСЧИТЫВАЕТСЯ! Золото
Дата: Зарегистрирован   [ Тип: внутренний ] Как тут cкачать?
MAGNET ссылка
MAGNET ссылка


Скачать .torrent

21 KB

Статус: проверено DHT
Скачан: торрент - 230 раз, раздача полностью - 23 раз
Размер: 4,06 GB
Оценка:  - (Голосов: 0)
Поблагодарили: 1
Поделиться ссылкой на эту раздачу с друзьями:
В контактеFacebookОдноклассникиTwitterLivejournalМой МирLiveinternet
 

 
Показать сообщения:    


Вы не можете начинать темы
Вы не можете отвечать на сообщения
Вы не можете редактировать свои сообщения
Вы не можете удалять свои сообщения
Вы не можете голосовать в опросах
Вы не можете прикреплять файлы к сообщениям
Вы можете скачивать файлы