Loading...
Error

Скачать Последователи / The Following (сезон 03) (Маркос Сига, Джошуа Батлер) [2015, триллер, драма, криминал, детектив, WEB-DL] [720p] [MVO (LostFilm)]+[Eng]+[Sub Ruc, Eng] торрент без регистрации

 
Статистика раздачи
Размер:  21,65 GB   |    Скачан:  437 раз
Сидов:  1  [  0 KB/s  ]  
 
Автор Сообщение

МихаНЕзатор

[] 

Информация о фильме
Название: Последователи
Оригинальное название: The Following
Год выхода: 2015
Жанр: Криминальный триллер
Режиссер: Маркос Сига, Джошуа Батлер

В ролях: Кевин Бэйкон, Шон Эшмор, Джеймс Пьюрфой, Натали Зиа, Энни Парисс, Нико Торторелла, Вэлори Керри, Адан Канто, Кайл Кэтлетт, Чинаса Огбуагу, Ли Джан Ли, Том Липински, Билли Браун, Стив Монро, Майкл Дрэйер, Джон Лафайетт, Кристофер Денхам, Дженнифер Феррин, Майк Колтер

О фильме: Главный антигерой - Джо Кэрол, бывший профессор колледжа, который преподавал работы Эдгара По и параллельно убивал молодых женщин во славу романтизма, пока не был пойман. С того момента он провел множество часов за компьютером в тюремной библиотеке, создавая социальную сеть из убийц-подражателей, которые исполняют любую его команду. Сериал начинается с того момента, когда Кэрол спасается от смертной казни с помощью своих последователей, и ФБР, в свою очередь, приглашает Райана Харди, который схватил Джо в первый раз, для консультирования в деле его поимки.



Страна: США
Студия: Outerbanks Entertainment, Warner Brothers International Television
Продолжительность: ~00:44:00 серия
Перевод: Профессиональный (многоголосый, закадровый) - LostFilm

Файл
Кодек: MPEG-4 AVC/H.264
Качество: WEB-DL 720p
Видео: AVC, ~ 4000 Кбит/сек, 1280x718 (1.778), 23.976 кадр/сек
Звук:
Аудио rus: AC-3 6 каналов 48,0 КГц 384 Кбит/сек | LostFilm
Аудио eng: AC-3 6 каналов 48,0 КГц 384 Кбит/сек
Субтитры: русский, английский

Релиз от: skyns61

АНОНСЫ ПОПУЛЯРНЫХ РАЗДАЧ


Торрент обновлён, добавлена 15-я серия!

01. Новая кровь /New Blood
02. В ящик /Boxed In
03. На виду /Exposed
04. Дом /Home
05. Свидетель обвинения /A Hostile Witness
06. Воссоединение /Reunion
07. Охота /The Hunt
08. Плоть и кровь /Flesh & Blood
09. Убить гонца /Kill the Messenger
10. Навеки /Evermore
11. Демоны /Demons
12. На грани /The Edge
13. Простой обмен /A Simple Trade
14. Живым или мёртвым /Dead or Alive

Монтаж, работа со звуком ; синхронизация субтитров : Skyns61
Выделенный Voiceover от «LostFilm» был наложен на центр оригинального AC3.
Перевод и озвучивание: LostFilm

Общее
Уникальный идентификатор : 200034283455860365569826176234304826623 (0x967D339EC1708BFE8ACBBBA7D2FFECFF)
Полное имя : F:FilmsThe.Following.S03,720pThe.Following.S03E01.720p.WEB-DL.DD5.1.L.mkv
Формат : Matroska
Версия формата : Version 4 / Version 2
Размер файла : 1,46 Гбайт
Продолжительность : 43 м.
Общий поток : 4773 Кбит/сек
Дата кодирования : UTC 2015-03-05 10:19:30
Программа кодирования : mkvmerge v7.7.0 ('Six Voices') 64bit built on Feb 28 2015 23:39:33
Библиотека кодирования : libebml v1.3.1 + libmatroska v1.4.2
_STATISTICS_WRITING_APP : mkvmerge v7.7.0 ('Six Voices') 64bit built on Feb 28 2015 23:39:33
_STATISTICS_WRITING_DATE_UTC : 2015-03-05 10:19:30
_STATISTICS_TAGS : BPS DURATION NUMBER_OF_FRAMES NUMBER_OF_BYTES
DURATION : 00:43:17.097000000
NUMBER_OF_FRAMES : 679
NUMBER_OF_BYTES : 30674

Видео
Идентификатор : 1
Формат : AVC
Формат/Информация : Advanced Video Codec
Профиль формата : High@L3.1
Параметр CABAC формата : Нет
Параметр ReFrames формата : 2 кадра
Идентификатор кодека : V_MPEG4/ISO/AVC
Продолжительность : 43 м.
Битрейт : 3910 Кбит/сек
Ширина : 1280 пикселей
Высота : 718 пикселей
Соотношение сторон : 16:9
Режим частоты кадров : Постоянный
Частота кадров : 23,976 кадра/сек
Цветовое пространство : YUV
Субдискретизация насыщенности : 4:2:0
Битовая глубина : 8 бит
Тип развёртки : Прогрессивная
Бит/(Пиксели*Кадры) : 0.177
Размер потока : 1,20 Гбайт (82%)
Язык : English
Default : Да
Forced : Нет
Основные цвета : BT.709
Характеристики трансфера : BT.709
Коэффициенты матрицы : BT.709

Аудио #1
Идентификатор : 2
Формат : AC-3
Формат/Информация : Audio Coding 3
Расширение режима : CM (complete main)
Параметр Endianness формата : Big
Идентификатор кодека : A_AC3
Продолжительность : 43 м.
Вид битрейта : Постоянный
Битрейт : 384 Кбит/сек
Каналы : 6 каналов
Расположение каналов : Front: L C R, Side: L R, LFE
Частота : 48,0 КГц
Битовая глубина : 16 бит
Метод сжатия : С потерями
Размер потока : 121 Мбайт (8%)
Заголовок : LostFilm 5.1
Язык : Russian
Default : Да
Forced : Нет

Аудио #2
Идентификатор : 3
Формат : AC-3
Формат/Информация : Audio Coding 3
Расширение режима : CM (complete main)
Параметр Endianness формата : Big
Идентификатор кодека : A_AC3
Продолжительность : 43 м.
Вид битрейта : Постоянный
Битрейт : 384 Кбит/сек
Каналы : 6 каналов
Расположение каналов : Front: L C R, Side: L R, LFE
Частота : 48,0 КГц
Битовая глубина : 16 бит
Метод сжатия : С потерями
Размер потока : 121 Мбайт (8%)
Язык : English
Default : Нет
Forced : Нет

Текст #1
Идентификатор : 4
Формат : UTF-8
Идентификатор кодека : S_TEXT/UTF8
Идентификатор кодека/Информация : UTF-8 Plain Text
Заголовок : rus
Язык : Russian
Default : Нет
Forced : Нет

Текст #2
Идентификатор : 5
Формат : UTF-8
Идентификатор кодека : S_TEXT/UTF8
Идентификатор кодека/Информация : UTF-8 Plain Text
Заголовок : CC
Язык : English
Default : Нет
Forced : Нет

Когда раздача ведётся путём добавления новых серий, при каждом добавлении создётся новый торрент. Чтобы начать докачку новой серии, пользователям необходимо сделать следующее:
(1) остановить скачивание,
(2) удалить старый торрент у себя из клиента (старые серии удалять не надо),
(3) скачать новый торрент и запустить его у себя в клиенте вместо старого, при этом указать клиенту путь в старую папку, куда и должно происходить скачивание новых серий.
Ваш клиент при этом должен произвести хеширование (проверку) старой папки (если не производит сам - помогите ему сделать это), и будет докачивать только те серии, которых у вас ещё нет. Старые серии при этом не удаляются, а продолжают раздаваться!
Eсли вы уже удалили старые серии, то предотвратить повторную закачку старых серий можно, отжав галочку в соответсвующих местах при запуске нового торрента. По возможности, желательно не удалять старые серии как можно дольше, чтобы релизёр не столько продолжал раздавать старые серии, а смог сконцентрироваться на новых.



Скачать Последователи.The.Following.(сезон.03).(Маркос.Сига.Джошуа.Батлер).[2015.триллер.драма.криминал.детектив.WEB-DL].[720p].[MVO.(LostFilm)]+[Eng]+[Sub.Ruc.Eng].torrent без регистрации
Золото ЗОЛОТАЯ РАЗДАЧА! СКАЧАННОЕ НЕ ЗАСЧИТЫВАЕТСЯ! Золото
Дата: Зарегистрирован   [ Тип: внутренний ] Как тут cкачать?
MAGNET ссылка
MAGNET ссылка


Скачать .torrent

56 KB

Статус: проверено DHT
Скачан: торрент - 437 раз, раздача полностью - 9 раз
Размер: 21,65 GB
Оценка:  4,7 (Голосов: 3)
Поблагодарили: 5
Поделиться ссылкой на эту раздачу с друзьями:
В контактеFacebookОдноклассникиTwitterLivejournalМой МирLiveinternet
 

 
Показать сообщения:    


Вы не можете начинать темы
Вы не можете отвечать на сообщения
Вы не можете редактировать свои сообщения
Вы не можете удалять свои сообщения
Вы не можете голосовать в опросах
Вы не можете прикреплять файлы к сообщениям
Вы можете скачивать файлы