Loading...
Error

Скачать Часовой / The Sentinel (Майкл Уиннер) [1977, ужасы, триллер, BDRip-AVC] [AVO]+[Оригинал]+[Sub] торрент без регистрации

 
Статистика раздачи
Размер:  2,52 GB   |    Скачан:  146 раз
Сидов:  1  [  0 KB/s  ]  
 
Автор Сообщение

Marsianka

[] 

Часовой / The Sentinel
Страна: США
Жанр: ужасы, триллер
Год выпуска: 1977
Продолжительность: 01:31:52

Перевод: Авторский (одноголосый закадровый), В. Штейн
Cубтитры: английские
Оригинальная аудиодорожка: английский

Режиссер: Майкл Уиннер / Michael Winner

В ролях: Кристофер Уокен, Том Беренджер, Джефф Голдблюм, Крис Сарандон, Кристина Рейнес, Мартин Болсам, Джон Кэрредин, Хосе Феррер, Ава Гарднер, Артур Кеннеди, Бёрджесс Мередит, Сильвия Майлз, Дебора Раффин

Описание: Нью-Йорк. Актриса и модель Элисон живет вместе со своим парнем Майклом, который хочет жениться на ней. Но Элисон еще не готова к такому шагу и решает снять собственное жилье. Элисон снимает квартиру в Бруклине у мисс Логан
Вскоре Элисон начинают беспокоить кошмары и странные галлюцинации. Она видит в своей комнате качающуюся люстру и слышит шум в квартире наверху...



Доп. информация: за работу над дорогой благодарим Linger babe

Исходник: The Sentinel 1977 1080p GER Blu-ray AVC DTS-HD MA 2.0-BIZON1984 @ HDBits
Качество видео: BDRip-AVC | sample
Формат видео: MKV
Видео кодек: x264
Видео: AVC 960x520 (1.85:1), 23.976 fps, ~3550 Kbps, 0.30 bit/pixel
Аудио #1: Russian AC3 2ch 48kHz 192Kbps | VO Штейн
Аудио #2: English AC3 2ch 48kHz 192Kbps | Original
Формат субтитров: softsub (SRT)
Главы: есть

General
Complete name : D:...The.Sentinel.1977.BDRip.x264.DD2.0.Rus.Eng-E76.mkv
Format : Matroska
Format version : Version 2
File size : 2.52 GiB
Duration : 1h 31mn
Overall bit rate : 3 922 Kbps
Movie name : The.Sentinel.1977.BDRip.x264.DD2.0.Rus.Eng-E76
Encoded date : UTC 2014-06-22 16:51:43
Writing application : mkvmerge v6.5.0 ('Isn't she lovely') built on Oct 20 2013 12:50:05
Writing library : libebml v1.3.0 + libmatroska v1.4.1

Video
ID : 1
Format : AVC
Format/Info : Advanced Video Codec
Format profile : High@L4.1
Format settings, CABAC : Yes
Format settings, ReFrames : 12 frames
Codec ID : V_MPEG4/ISO/AVC
Bit rate : 3 460 Kbps
Width : 960 pixels
Height : 520 pixels
Display aspect ratio : 1.85:1
Frame rate mode : Constant
Color space : YUV
Chroma subsampling : 4:2:0
Bit depth : 8 bits
Scan type : Progressive
Title : Encode by E76
Writing library : x264 core 142 r2431kMod ac76440
Encoding settings : cabac=1 / ref=12 / deblock=1:-3:-2 / analyse=0x3:0x113 / me=umh / subme=10 / psy=1 / fade_compensate=0.00 / psy_rd=1.00:0.00 / mixed_ref=1 / me_range=32 / chroma_me=1 / trellis=2 / 8x8dct=1 / cqm=0 / deadzone=21,11 / fast_pskip=1 / chroma_qp_offset=-2 / threads=6 / lookahead_threads=1 / sliced_threads=0 / nr=0 / decimate=1 / interlaced=0 / bluray_compat=0 / constrained_intra=0 / fgo=0 / bframes=12 / b_pyramid=2 / b_adapt=2 / b_bias=0 / direct=1 / weightb=1 / open_gop=0 / weightp=2 / keyint=240 / keyint_min=23 / scenecut=40 / intra_refresh=0 / rc_lookahead=0 / rc=crf / mbtree=0 / crf=19.5000 / qcomp=0.65 / qpmin=0 / qpmax=69 / qpstep=4 / vbv_maxrate=50000 / vbv_bufsize=62500 / crf_max=0.0 / nal_hrd=none / filler=0 / ip_ratio=1.40 / pb_ratio=1.20 / aq=3:1.00
Language : English
Default : Yes
Forced : No
Matrix coefficients : BT.709

Audio #1
ID : 2
Format : AC-3
Format/Info : Audio Coding 3
Mode extension : CM (complete main)
Format settings, Endianness : Big
Codec ID : A_AC3
Duration : 1h 31mn
Bit rate mode : Constant
Bit rate : 192 Kbps
Channel(s) : 2 channels
Channel positions : Front: L R
Sampling rate : 48.0 KHz
Bit depth : 16 bits
Compression mode : Lossy
Stream size : 126 MiB (5%)
Title : AVO Stain
Language : Russian
Default : Yes
Forced : No

Audio #2
ID : 3
Format : AC-3
Format/Info : Audio Coding 3
Mode extension : CM (complete main)
Format settings, Endianness : Big
Codec ID : A_AC3
Duration : 1h 31mn
Bit rate mode : Constant
Bit rate : 192 Kbps
Channel(s) : 2 channels
Channel positions : Front: L R
Sampling rate : 48.0 KHz
Bit depth : 16 bits
Compression mode : Lossy
Stream size : 126 MiB (5%)
Title : Original
Language : English
Default : No
Forced : No

Text
ID : 4
Format : UTF-8
Codec ID : S_TEXT/UTF8
Codec ID/Info : UTF-8 Plain Text
Language : English
Default : No
Forced : No

Menu
00:00:00.000 : en:Chapter 01
00:05:00.633 : en:Chapter 02
...
01:31:52.006 : en:Chapter 13

--[Information] [22.06.2014 11:23:16] raw [info]: 960x520p 1:1 @ 24000/1001 fps (cfr)
--[Information] [22.06.2014 18:34:59] x264 [info]: frame I:1081 Avg QP:17.83 size: 66626
--[Information] [22.06.2014 18:35:00] x264 [info]: frame P:25588 Avg QP:19.28 size: 28009
--[Information] [22.06.2014 18:35:00] x264 [info]: frame B:105487 Avg QP:20.84 size: 15619
--[Information] [22.06.2014 18:35:00] x264 [info]: consecutive B-frames: 1.2% 1.2% 3.8% 20.0% 12.0% 45.6% 11.0% 2.7% 1.3% 0.5% 0.2% 0.2% 0.4%
--[Information] [22.06.2014 18:35:00] x264 [info]: kb/s:3536.04



Скачать Часовой.The.Sentinel.(Майкл.Уиннер).[1977.ужасы.триллер.BDRip-AVC].[AVO]+[Оригинал]+[Sub].torrent без регистрации
Золото ЗОЛОТАЯ РАЗДАЧА! СКАЧАННОЕ НЕ ЗАСЧИТЫВАЕТСЯ! Золото
Дата: Зарегистрирован   [ Тип: внутренний ] Как тут cкачать?
MAGNET ссылка
MAGNET ссылка


Скачать .torrent

13 KB

Статус: проверено DHT
Скачан: торрент - 146 раз, раздача полностью - 2 раз
Размер: 2,52 GB
Оценка:  - (Голосов: 0)
Поблагодарили: 0
Поделиться ссылкой на эту раздачу с друзьями:
В контактеFacebookОдноклассникиTwitterLivejournalМой МирLiveinternet
 

 
Показать сообщения:    


Вы не можете начинать темы
Вы не можете отвечать на сообщения
Вы не можете редактировать свои сообщения
Вы не можете удалять свои сообщения
Вы не можете голосовать в опросах
Вы не можете прикреплять файлы к сообщениям
Вы можете скачивать файлы