Loading...
Error

Скачать Пунктик / По часовой стрелке / Clockwise (Кристофер Морахэн) [1986, комедия, DVDRip] [DVO] торрент без регистрации

 
Статистика раздачи
Размер:  1,48 GB   |    Скачан:  109 раз
Сидов:  1  [  0 KB/s  ]  
 
Автор Сообщение

Marsianka

[] 

Информация о фильме
Название: По часовой стрелке
Оригинальное название: Clockwise
Год выхода: 1986
Жанр: комедия
Режиссер: Кристофер Морахэн / Christopher Morahan
В ролях: John Cleese, Penelope Wilton, Alison Steadman, Stephen Moore, Sharon Maiden

О фильме:
У директора школы мистера Стимпсона (Клиз) есть один «пунктик». Всю свою жизнь и жизнь своих сотрудников и учеников он сверяет строго по часам. Но когда близится час его славы, отлаженный механизм дает сбой…
Отправившись на престижную учительскую конференцию на другой конец страны, Стимпсон умудряется перепутать поезда. И теперь, чтобы успеть вовремя и произнести самую важную речь в своей жизни, он вынужден принять участие в безумном марафоне по пересеченной местности через всю Англию.
К концу дня Стимпсон, преследуемый полицией, женой, соседями и коллегами по работе, будет объявлен в розыск за угон автомобиля, кражу, похищение и вандализм...


Страна: Великобритания
Продолжительность: 01:32:05
Перевод: Профессиональный (двухголосый)

Файл
Кодек: XviD
Качество: DVDRip
Видео: 720x400 , 25 fps, 1901 kbps
Audio 1 (Russian): 44.100 kHz, MPEG Layer 3, 2 ch, 256.00 kbps
Audio 2 (English): 48 kHz, MPEG Layer 3, 2 ch, 128.00 kbps
Общее
Полное имя : C:ТоррентыПунктик.1986.DVDRip.avi
Формат : AVI
Формат/Информация : Audio Video Interleave
Размер файла : 1,48 Гбайт
Продолжительность : 1 ч. 32 м.
Общий поток : 2301 Кбит/сек
Программа кодирования : VirtualDubModRus 1.5.10.2 (build 2540/release)
Библиотека кодирования : VirtualDubMod build 2540/release

Видео
Идентификатор : 0
Формат : MPEG-4 Visual
Профиль формата : Advanced Simple@L5
Параметр BVOP формата : 2
Параметр QPel формата : Нет
Параметр GMC формата : Без точки перехода
Параметр матрицы формата : Default (MPEG)
Режим смешивания : Сжатый битовый поток
Идентификатор кодека : XVID
Идентификатор кодека/Подсказка : XviD
Продолжительность : 1 ч. 32 м.
Битрейт : 1903 Кбит/сек
Ширина : 720 пикселей
Высота : 400 пикселей
Соотношение сторон : 16:9
Частота кадров : 25,000 кадров/сек
Цветовое пространство : YUV
Субдискретизация насыщенности : 4:2:0
Битовая глубина : 8 бит
Тип развёртки : Прогрессивная
Метод сжатия : С потерями
Бит/(Пиксели*Кадры) : 0.264
Размер потока : 1,22 Гбайт (83%)
Библиотека кодирования : XviD 1.2.0.dev47 (UTC 2006-11-01)

Аудио #1
Идентификатор : 1
Формат : MPEG Audio
Версия формата : Version 1
Профиль формата : Layer 3
Идентификатор кодека : 55
Идентификатор кодека/Подсказка : MP3
Продолжительность : 1 ч. 32 м.
Вид битрейта : Постоянный
Битрейт : 256 Кбит/сек
Каналы : 2 канала
Частота : 44,1 КГц
Метод сжатия : С потерями
Размер потока : 169 Мбайт (11%)
Выравнивание : Разделение по промежуткам
Продолжительность промежутка : 40 мс. (1,00 видеокадр)
Время предзагрузки промежутка : 500 мс.

Аудио #2
Идентификатор : 2
Формат : MPEG Audio
Версия формата : Version 1
Профиль формата : Layer 3
Режим : Joint stereo
Расширение режима : MS Stereo
Идентификатор кодека : 55
Идентификатор кодека/Подсказка : MP3
Продолжительность : 1 ч. 32 м.
Вид битрейта : Постоянный
Битрейт : 128 Кбит/сек
Каналы : 2 канала
Частота : 48,0 КГц
Метод сжатия : С потерями
Размер потока : 84,3 Мбайт (6%)
Выравнивание : Разделение по промежуткам
Продолжительность промежутка : 40 мс. (1,00 видеокадр)
Время предзагрузки промежутка : 500 мс.



Скачать Пунктик.По.часовой.стрелке.Clockwise.(Кристофер.Морахэн).[1986.комедия.DVDRip].[DVO].torrent без регистрации
Золото ЗОЛОТАЯ РАЗДАЧА! СКАЧАННОЕ НЕ ЗАСЧИТЫВАЕТСЯ! Золото
Дата: Зарегистрирован   [ Тип: внутренний ] Как тут cкачать?
MAGNET ссылка
MAGNET ссылка


Скачать .torrent

15 KB

Статус: проверено DHT
Скачан: торрент - 109 раз, раздача полностью - 2 раз
Размер: 1,48 GB
Оценка:  - (Голосов: 0)
Поблагодарили: 0
Поделиться ссылкой на эту раздачу с друзьями:
В контактеFacebookОдноклассникиTwitterLivejournalМой МирLiveinternet
 

 
Показать сообщения:    


Вы не можете начинать темы
Вы не можете отвечать на сообщения
Вы не можете редактировать свои сообщения
Вы не можете удалять свои сообщения
Вы не можете голосовать в опросах
Вы не можете прикреплять файлы к сообщениям
Вы можете скачивать файлы