Loading...
Error

Скачать Хоффа / Hoffa (Дэнни ДеВито) [1992, драма, криминал, биография, BDRip-AVC] [MVO]+[AVO (А. Гаврилов)+[Оригинал]+[Sub]x2 торрент без регистрации

 
Статистика раздачи
Размер:  4,21 GB   |    Скачан:  149 раз
Сидов:  1  [  0 KB/s  ]  
 
Автор Сообщение

Marsianka

[] 

Хоффа / Hoffa
Страна: Франция, США
Жанр: драма, криминал, биография
Год выпуска: 1992
Продолжительность: 02:20:02

Перевод#1: Профессиональный (многоголосый закадровый)
Перевод#2: Авторский (одноголосый закадровый), А. Гаврилов
Cубтитры: русские, английские
Оригинальная аудиодорожка: английский

Режиссер: Дэнни ДеВито

В ролях: Джек Николсон, Дэнни ДеВито, Арманд Ассанте, Дж.Т. Уолш, Джон Си Райли, Фрэнк Уэйли, Кевин Андерсон, Джон П. Райан, Роберт Проски, Наталия Ногули

Описание: Взлет и падение самого знаменитого авантюриста и политика от американских профсоюзов Джимми Хоффы
Во времена президента Эйзенхауэра он уговаривал водителей грузовиков вступить в его профсоюз, между тридцатыми и семидесятыми - годы борьбы за права, головокружительная карьера, сговор с мафией, тюрьма и снова свобода
Хоффа - "Крестный отец" наоборот: Корлеоне стремились получить власть, чтобы смыть кровь со своих рук, Хоффа же, начав свой путь безупречно чистым, познал уродства большой власти...



Доп. информация: за перевод Гаврилова благодарим Goldtwait, за работу над дорогой - Linger babe
Исходник: Blu-ray
Качество видео: BDRip-AVC | sample
Формат видео: MKV
Видео кодек: x264
Видео: AVC 1120x476 (2.35:1), 23.976 fps, ~3200 Kbps, 0.25 bit/pixel
Аудио #1: Russian AC3 6ch 48kHz 448Kbps | MVO
Аудио #2: Russian AC3 2ch 48kHz 192Kbps | AVO Гаврилов
Аудио #3: English AC3 6ch 48kHz 448Kbps | Original
Формат субтитров: softsub (SRT)
Главы: есть

General
Complete name : E:...Hoffa.1992.BDRip.x264.AC3.Rus.Eng-E76.mkv
Format : Matroska
Format version : Version 4 / Version 2
File size : 4.21 GiB
Duration : 2h 20mn
Overall bit rate : 4 302 Kbps
Movie name : Hoffa.1992.BDRip.x264.AC3.Rus.Eng-E76
Encoded date : UTC 2013-04-15 21:45:20
Writing application : mkvmerge v6.1.0 ('Old Devil') built on Mar 2 2013 14:32:37
Writing library : libebml v1.3.0 + libmatroska v1.4.0

Video
ID : 1
Format : AVC
Format/Info : Advanced Video Codec
Format profile : High@L4.1
Format settings, CABAC : Yes
Format settings, ReFrames : 12 frames
Codec ID : V_MPEG4/ISO/AVC
Duration : 2h 20mn
Bit rate : 3 128 Kbps
Width : 1 120 pixels
Height : 476 pixels
Display aspect ratio : 2.35:1
Frame rate mode : Constant
Frame rate : 23.976 fps
Color space : YUV
Chroma subsampling : 4:2:0
Bit depth : 8 bits
Scan type : Progressive
Bits/(Pixel*Frame) : 0.245
Stream size : 3.06 GiB (73%)
Title : Encode by Enclave76
Writing library : x264 core 129 r2230kMod 1cffe9f
Encoding settings : cabac=1 / ref=12 / deblock=1:-3:-3 / analyse=0x3:0x113 / me=umh / subme=11 / psy=1 / fade_compensate=0.00 / psy_rd=1.00:0.00 / mixed_ref=1 / me_range=48 / chroma_me=1 / trellis=2 / 8x8dct=1 / cqm=0 / deadzone=21,11 / fast_pskip=1 / chroma_qp_offset=-2 / threads=6 / lookahead_threads=1 / sliced_threads=0 / nr=0 / decimate=1 / interlaced=0 / bluray_compat=0 / constrained_intra=0 / bframes=16 / b_pyramid=2 / b_adapt=2 / b_bias=0 / direct=1 / weightb=1 / open_gop=0 / weightp=2 / keyint=240 / keyint_min=23 / scenecut=40 / intra_refresh=0 / rc_lookahead=40 / rc=crf / mbtree=0 / crf=19.3000 / qcomp=0.70 / qpmin=0 / qpmax=69 / qpstep=4 / vbv_maxrate=50000 / vbv_bufsize=62500 / crf_max=0.0 / nal_hrd=none / ip_ratio=1.40 / pb_ratio=1.30 / aq=3:1.00 / zones=193070,201455,q=30
Language : English
Default : No
Forced : No
Matrix coefficients : BT.709

Audio #1
ID : 2
Format : AC-3
Format/Info : Audio Coding 3
Mode extension : CM (complete main)
Format settings, Endianness : Big
Codec ID : A_AC3
Duration : 2h 20mn
Bit rate mode : Constant
Bit rate : 448 Kbps
Channel(s) : 6 channels
Channel positions : Front: L C R, Side: L R, LFE
Sampling rate : 48.0 KHz
Bit depth : 16 bits
Compression mode : Lossy
Stream size : 449 MiB (10%)
Title : MVO
Language : Russian
Default : Yes
Forced : No

Audio #2
ID : 3
Format : AC-3
Format/Info : Audio Coding 3
Mode extension : CM (complete main)
Format settings, Endianness : Big
Codec ID : A_AC3
Duration : 2h 20mn
Bit rate mode : Constant
Bit rate : 192 Kbps
Channel(s) : 2 channels
Channel positions : Front: L R
Sampling rate : 48.0 KHz
Bit depth : 16 bits
Compression mode : Lossy
Stream size : 192 MiB (4%)
Title : AVO Gavrilov
Language : Russian
Default : No
Forced : No

Audio #3
ID : 4
Format : AC-3
Format/Info : Audio Coding 3
Mode extension : CM (complete main)
Format settings, Endianness : Big
Codec ID : A_AC3
Duration : 2h 20mn
Bit rate mode : Constant
Bit rate : 448 Kbps
Channel(s) : 6 channels
Channel positions : Front: L C R, Side: L R, LFE
Sampling rate : 48.0 KHz
Bit depth : 16 bits
Compression mode : Lossy
Stream size : 449 MiB (10%)
Title : Original
Language : English
Default : No
Forced : No

Text #1
ID : 5
Format : UTF-8
Codec ID : S_TEXT/UTF8
Codec ID/Info : UTF-8 Plain Text
Language : Russian
Default : No
Forced : No

Text #2
ID : 6
Format : UTF-8
Codec ID : S_TEXT/UTF8
Codec ID/Info : UTF-8 Plain Text
Language : English
Default : No
Forced : No

Menu
00:00:00.000 : en:00:00:00.000
00:00:21.021 : en:00:00:21.021
...
02:12:08.003 : en:02:12:08.003

--[NoImage] x264 [info]: frame I:1231 Avg QP:17.75 size: 71847
--[NoImage] x264 [info]: frame P:37396 Avg QP:19.07 size: 33090
--[NoImage] x264 [info]: frame B:162829 Avg QP:20.39 size: 12573
--[NoImage] x264 [info]: consecutive B-frames: 1.1% 1.0% 3.6% 15.6% 16.0% 41.6% 7.0% 3.6% 2.4% 1.5% 1.4% 0.9% 1.4% 1.5% 0.7% 0.2% 0.5%
--[NoImage] x264 [info]: kb/s:3211.54



Скачать Хоффа.Hoffa.(Дэнни.ДеВито).[1992.драма.криминал.биография.BDRip-AVC].[MVO]+[AVO.(А.Гаврилов)+[Оригинал]+[Sub]x2.torrent без регистрации
Золото ЗОЛОТАЯ РАЗДАЧА! СКАЧАННОЕ НЕ ЗАСЧИТЫВАЕТСЯ! Золото
Дата: Зарегистрирован   [ Тип: внутренний ] Как тут cкачать?
MAGNET ссылка
MAGNET ссылка


Скачать .torrent

22 KB

Статус: проверено DHT
Скачан: торрент - 149 раз, раздача полностью - 4 раз
Размер: 4,21 GB
Оценка:  - (Голосов: 0)
Поблагодарили: 2
Поделиться ссылкой на эту раздачу с друзьями:
В контактеFacebookОдноклассникиTwitterLivejournalМой МирLiveinternet
 

 
Показать сообщения:    


Вы не можете начинать темы
Вы не можете отвечать на сообщения
Вы не можете редактировать свои сообщения
Вы не можете удалять свои сообщения
Вы не можете голосовать в опросах
Вы не можете прикреплять файлы к сообщениям
Вы можете скачивать файлы