Loading...
Error

Скачать Хоффа / Hoffa (Дэнни ДеВито) [1992, драма, криминал, биография, BDRip] [MVO] торрент без регистрации

 
Статистика раздачи
Размер:  2,18 GB   |    Скачан:  108 раз
Сидов:  1  [  0 KB/s  ]  
 
Автор Сообщение

Marsianka

[] 

Хоффа / Hoffa (1992) BDRip

Информация о фильме
Название: Хоффа
Оригинальное название: Hoffa
Год выхода: 1992
Жанр: драма, криминал, биография
Режиссер: Дэнни ДеВито
В ролях: Джек Николсон, Дэнни ДеВито, Арманд Ассанте, Дж.Т. Уолш, Джон Си Райли, Фрэнк Уэйли, Кевин Андерсон, Джон П. Райан, Роберт Проски, Наталия Ногулич

О фильме:
Взлет и падение самого знаменитого авантюриста и политика от американских профсоюзов Джимми Хоффы. Во времена президента Эйзенхауэра он уговаривал водителей грузовиков вступить в его профсоюз. А во времена Никсона он погибает от рук наемных убийц.

Между тридцатыми и семидесятыми - годы борьбы за права, головокружительная карьера, сговор с мафией, тюрьма и снова свобода. Хоффа - «Крестный отец» наоборот. Корлеоне стремились получить власть, чтобы смыть кровь со своих рук. Хоффа, начав свой путь безупречно чистым, познал уродства большой власти.



Страна: США, Франция
Продолжительность: 02:20:02
Перевод: Многоголосый закадровый [R5]

Файл
Кодек: XviD
Качество: BDRip
Видео: 720x304 (2.37:1), 23.976 fps, 1769 kbps, 0.337 bit/pixel
Звук: 48 kHz, AC3 5.1, 448.00 kbps

Общее
Полное имя : D:Hoffa.1992.BDRip.avi
Формат : AVI
Формат/Информация : Audio Video Interleave
Профиль формата : OpenDML
Размер файла : 2,18 Гбайт
Продолжительность : 2 ч. 20 м.
Общий поток : 2229 Кбит/сек
Название фильма : Хоффа / Hoffa (1992) BDRip
Программа кодирования : VirtualDubModRus 1.5.10.2 (build 2542/release)
Библиотека кодирования : VirtualDubMod build 2542/release
Правообладатель : rip by Rulya74

Видео
Идентификатор : 0
Формат : MPEG-4 Visual
Профиль формата : Simple@L5
Параметр BVOP формата : Нет
Параметр QPel формата : Нет
Параметр GMC формата : Без точки перехода
Параметр матрицы формата : Default (H.263)
Идентификатор кодека : XVID
Идентификатор кодека/Подсказка : XviD
Продолжительность : 2 ч. 20 м.
Битрейт : 1769 Кбит/сек
Ширина : 720 пикселей
Высота : 304 пикселя
Соотношение сторон : 2,35:1
Частота кадров : 23,976 кадра/сек
Цветовое пространство : YUV
Субдискретизация насыщенности : 4:2:0
Битовая глубина : 8 бит
Тип развёртки : Прогрессивная
Метод сжатия : С потерями
Бит/(Пиксели*Кадры) : 0.337
Размер потока : 1,73 Гбайт (79%)
Библиотека кодирования : XviD 65

Аудио
Идентификатор : 1
Формат : AC-3
Формат/Информация : Audio Coding 3
Расширение режима : CM (complete main)
Идентификатор кодека : 2000
Продолжительность : 2 ч. 20 м.
Вид битрейта : Постоянный
Битрейт : 448 Кбит/сек
Каналы : 6 каналов
Расположение каналов : Front: L C R, Side: L R, LFE
Частота : 48,0 КГц
Битовая глубина : 16 бит
Метод сжатия : С потерями
Размер потока : 449 Мбайт (20%)
Выравнивание : Разделение по промежуткам
Продолжительность промежутка : 42 мс. (1,00 видеокадр)
Время предзагрузки промежутка : 500 мс.
Заголовок : Многоголосый закадровый [R5]



Скачать Хоффа.Hoffa.(Дэнни.ДеВито).[1992.драма.криминал.биография.BDRip].[MVO].torrent без регистрации
Золото ЗОЛОТАЯ РАЗДАЧА! СКАЧАННОЕ НЕ ЗАСЧИТЫВАЕТСЯ! Золото
Дата: Зарегистрирован   [ Тип: внутренний ] Как тут cкачать?
MAGNET ссылка
MAGNET ссылка


Скачать .torrent

11 KB

Статус: проверено DHT
Скачан: торрент - 108 раз, раздача полностью - 1 раз
Размер: 2,18 GB
Оценка:  - (Голосов: 0)
Поблагодарили: 1
Поделиться ссылкой на эту раздачу с друзьями:
В контактеFacebookОдноклассникиTwitterLivejournalМой МирLiveinternet
 

 
Показать сообщения:    


Вы не можете начинать темы
Вы не можете отвечать на сообщения
Вы не можете редактировать свои сообщения
Вы не можете удалять свои сообщения
Вы не можете голосовать в опросах
Вы не можете прикреплять файлы к сообщениям
Вы можете скачивать файлы