Loading...
Error

Скачать Отец Браун / Father Brown (сезон 02) (Йен Барбер и др.) [2013, драма, детектив, HDTVRip] [MVO (ТВЦ)]+[Eng] торрент без регистрации

 
Статистика раздачи
Размер:  8,74 GB   |    Скачан:  102 раза
Сидов:  8  [  0 KB/s  ]   Личеров:  5  [  0 KB/s  ]  
 
Автор Сообщение

МихаНЕзатор

[] 

Информация о фильме
Название: Отец Браун
Оригинальное название: Father Brown
Год выхода: 2013
Жанр: драма, детектив
Режиссер: Йен Барбер, Мэтт Картер, Доминик Киви

В ролях: Марк Вильямс, Хьюго Спир, Kasia Koleczek, Майк Истман, Алекс Прайс, Кейт Осборн, Нэнси Кэролл

О фильме: В английском священнике есть большая часть тех качеств, которые были присущи Шерлоку Холмсу. Он умел обращать внимание на незаметные детали, в разговоре больше внимания старался уделять мимике собеседника — ведь жесты человека, как теперь считают ученые, могут сказать больше, чем слова. Глубокий анализ и умение мыслить логически делают отца Брауна, внешне скромного и неприметного, суровым обличителем для преступников.



Страна: Великобритания
Студия: BBC One
Продолжительность: ~00:45:00 серия
Перевод: Профессиональный (многоголосый закадровый) ТВЦ

Файл
Кодек: XviD / AC3
Качество: HDTVRip
Видео: MPEG4, XviD, 720x400 (16/9), 25.000 fps, 2 211 Kbps (0.307 bit/pixel)
Звук:
Аудио 1: AC-3, 48.0 KHz, 2 ch, 192 Kbps, CBR - русский
Аудио 2: AC-3, 48.0 KHz, 6 ch, 384 Kbps, CBR - английский

АНОНСЫ ПОПУЛЯРНЫХ РАЗДАЧ
General
Complete name : /Отец Браун. Сезон 2/2x01 - The Ghost in the Machine (Адская машина).avi
Format : AVI
Format/Info : Audio Video Interleave
File size : 896 MiB
Duration : 44mn 41s
Overall bit rate : 2 802 Kbps
Director : miha2154
Writing application : VirtualDubMod 1.5.10.2 (build 2540/release)
Writing library : VirtualDubMod build 2540/release

Video
ID : 0
Format : MPEG-4 Visual
Format profile : Advanced Simple@L5
Format settings, BVOP : 2
Format settings, QPel : No
Format settings, GMC : No warppoints
Format settings, Matrix : Default (MPEG)
Codec ID : XVID
Codec ID/Hint : XviD
Duration : 44mn 41s
Bit rate : 2 211 Kbps
Width : 720 pixels
Height : 400 pixels
Display aspect ratio : 16:9
Frame rate : 25.000 fps
Color space : YUV
Chroma subsampling : 4:2:0
Bit depth : 8 bits
Scan type : Progressive
Compression mode : Lossy
Bits/(Pixel*Frame) : 0.307
Stream size : 707 MiB (79%)
Writing library : XviD 1.1.0 (UTC 2005-11-22)

Audio #1
ID : 1
Format : AC-3
Format/Info : Audio Coding 3
Mode extension : CM (complete main)
Format settings, Endianness : Big
Codec ID : 2000
Duration : 44mn 41s
Bit rate mode : Constant
Bit rate : 192 Kbps
Channel(s) : 2 channels
Channel positions : Front: L R
Sampling rate : 48.0 KHz
Bit depth : 16 bits
Compression mode : Lossy
Stream size : 61.4 MiB (7%)
Alignment : Split accross interleaves
Interleave, duration : 40 ms (1.00 video frame)
Interleave, preload duration : 500 ms

Audio #2
ID : 2
Format : AC-3
Format/Info : Audio Coding 3
Mode extension : CM (complete main)
Format settings, Endianness : Big
Codec ID : 2000
Duration : 44mn 41s
Bit rate mode : Constant
Bit rate : 384 Kbps
Channel(s) : 6 channels
Channel positions : Front: L C R, Side: L R, LFE
Sampling rate : 48.0 KHz
Bit depth : 16 bits
Compression mode : Lossy
Stream size : 123 MiB (14%)
Alignment : Split accross interleaves
Interleave, duration : 40 ms (1.00 video frame)
Interleave, preload duration : 500 ms



Скачать Отец.Браун.Father.Brown.(сезон.02).(Йен.Барбер.и.др.).[2013.драма.детектив.HDTVRip].[MVO.(ТВЦ)]+[Eng].torrent без регистрации
Золото ЗОЛОТАЯ РАЗДАЧА! СКАЧАННОЕ НЕ ЗАСЧИТЫВАЕТСЯ! Золото
Дата: Зарегистрирован   [ Тип: внешний ] Как тут cкачать?
MAGNET ссылка
MAGNET ссылка


Скачать .torrent

46 KB

Статус: проверено DHT
Скачан: торрент - 102 раз, раздача полностью - 7 раз
Размер: 8,74 GB
Оценка:  - (Голосов: 0)
Поблагодарили: 0
Поделиться ссылкой на эту раздачу с друзьями:
В контактеFacebookОдноклассникиTwitterLivejournalМой МирLiveinternet
 

 
Показать сообщения:    


Вы не можете начинать темы
Вы не можете отвечать на сообщения
Вы не можете редактировать свои сообщения
Вы не можете удалять свои сообщения
Вы не можете голосовать в опросах
Вы не можете прикреплять файлы к сообщениям
Вы можете скачивать файлы