Loading...
Error

Скачать Отец Браун / Патер Браун / Father Brown (сезон 01) (Йен Барбер и др.) [2013, драма, детектив, HDTVRip] [720p] [MVO (ТВЦ)]+[Eng] торрент без регистрации

 
Статистика раздачи
Размер:  9,2 GB   |    Скачан:  127 раз
Сидов:  1  [  0 KB/s  ]  
 
Автор Сообщение

МихаНЕзатор

[] 

Информация о фильме
Название: Отец Браун / Патер Браун
Оригинальное название: Father Brown
Год выхода: 2013
Жанр: детектив, драма
Режиссер: Айэн Барбер, Доминик Киви, Мэтт Картер

В ролях: Марк Вильямс, Хьюго Спир, Kasia Koleczek, Майк Истман, Алекс Прайс, Кейт Осборн, Нэнси Кэролл

О фильме: И если изобретателем детектива принято считать Эдгара Аллана По, то безусловным и ярким продолжателем детективного мастерства можно считать Гилберта Кейта Честертона. Именно по его классическим рассказам поставлен этот британский сериал. Герой Честертона - отец Браун,точно так же, как и Шерлок Холмс использовал свою внимательность в отношении людей, наблюдательность в мелочах и умение делать правильные выводы в расследовании загадочных преступлений. Чего тут много говорить? Классика.



Страна: Великобритания
Продолжительность: 10 x ~ 00:49:00
Перевод: Профессиональный (многоголосый закадровый) ТВЦ

Файл
Кодек: x264
Качество: HDTVRip 720p
Видео: ~ 2400 Кбит/с, 1280x720
Звук:
Аудио 1: Русский, AC3, 48 kHz, 2 ch, 192 kbps
Аудио 2: Английский, AC3, 48 kHz, 6 ch, 448 kbps
Субтитры: русские, английские

АНОНСЫ ПОПУЛЯРНЫХ РАЗДАЧ

01. Молот Господень / The Hammer of God
На деревенском празднике по случаю ремонта церковных башенных часов убит молодой человек. Обвинён местный кузнец, потому что орудие убийства - молоток из его кузни.

02. Летучие звёзды / The Flying Stars
Неожиданная влюблённость дочери в своего наставника, неожиданная смерть хозяйки дома. Она оглушена и утоплена в предместном пруду. Кто может быть убийцей? Муж, ненавидевший жену за пьянство? Молодой учитель, чтобы открыть дорогу своему счастью с её дочерью, или кто-то ещё, мечтающий завладеть бриллиантовым ожерельем "Летучие звёзды", принадлежащем покойной?

03. Неверный контур / The Wrong Shape
Отец Браун отправляется по приглашению в гости. И сам оказывается под подозрением, в доме - повешенный. Или повесили?

04. Человек на дереве / The Man in the Tree
На дереве находят человека без сознания и в нижнем белье. Кто он? Откуда? Скорее всего его сбросили с проходящего мимо поезда...

05. Глаз Аполлона / The Eye of Apollo
В тихой английской деревушке появилась новая церковь - церковь Аполлона. Что она проповедует и почему объявления о ней рассыпаны по всей деревне? Отец Браун не мог не заинтересоваться..

06. Невеста Христова / The Bride of Christ
На обряде посвящения в Христовы невесты в монастыре Святой Агнессы прямо у алтаря замертво падает одна из послушниц. Всё говорит о том, что был применён цианид - яд очень быстрого действия. Но девушка всё время была на виду и даже более того, придерживалась перед обрядом жесткого поста. Каким образом она могла отравиться? Или кто-то её отравил? Возможно, не окажись рядом отец Браун, тайна смерти Христовой невесты, повлекшая за собой ряд других, так никогда и не была бы раскрыта.

07. Дьявольская пыль. В деревне без следа пропадает девочка, которую все считают смертельно больной

08. Лик смерти. Заслуживает ли отмщения смерть отца, попавшего под колёса автомобиля, если дама сидящая за рулём, даже не попыталась остановиться? Самое запутанное дело отца Брауна, едва не кончившееся трагедией.

09. Мэр и фокусник. В деревне большой переполох по случаю приезда мэра. Конфликтная ситуация и приехавший мэр, отдаёт Богу душу...

10. Сапфировый крест. Отец Браун получает письмо в котором ему настоятельно рекомендуют следить за крестом, чтобы поймать вора. Тем временем в церкви, подле Сапфирового Креста найден платок с литерой "М". И отец Браун понимает, что драгоценную святыню хотят похитить...

Общее
Уникальный идентификатор : 212355061903913123700150997311860359099 (0x9FC218E5C9DEF80FAA0D5FD1C4C9BFBB)
Полное имя : Father Brown (Отец Браун) Сезон 1 2013 HDTVRip 720p MVOfather.brown.2013.s01e01.720p.hdtv.x264.mkv
Формат : Matroska
Версия формата : Version 4 / Version 2
Размер файла : 1,14 Гбайт
Продолжительность : 49 м.
Общий поток : 3323 Кбит/сек
Дата кодирования : UTC 2014-05-05 13:25:12
Программа кодирования : mkvmerge v6.9.1 ('Blue Panther') 64bit built on Apr 18 2014 18:23:38
Библиотека кодирования : libebml v1.3.0 + libmatroska v1.4.1

Видео
Идентификатор : 1
Формат : AVC
Формат/Информация : Advanced Video Codec
Профиль формата : High@L4.1
Параметр CABAC формата : Да
Параметр ReFrames формата : 5 кадров
Идентификатор кодека : V_MPEG4/ISO/AVC
Продолжительность : 49 м.
Битрейт : 2617 Кбит/сек
Ширина : 1280 пикселей
Высота : 720 пикселей
Соотношение сторон : 16:9
Режим частоты кадров : Постоянный
Частота кадров : 25,000 кадров/сек
Цветовое пространство : YUV
Субдискретизация насыщенности : 4:2:0
Битовая глубина : 8 бит
Тип развёртки : Прогрессивная
Бит/(Пиксели*Кадры) : 0.114
Размер потока : 922 Мбайт (79%)
Заголовок : 1x01 - The Hammer of God (Молот Господень)
Библиотека кодирования : x264 core 129 r2230 1cffe9f
Настройки программы : cabac=1 / ref=5 / deblock=1:0:0 / analyse=0x3:0x113 / me=umh / subme=8 / psy=1 / psy_rd=1.00:0.00 / mixed_ref=1 / me_range=16 / chroma_me=1 / trellis=1 / 8x8dct=1 / cqm=0 / deadzone=21,11 / fast_pskip=1 / chroma_qp_offset=-2 / threads=12 / lookahead_threads=2 / sliced_threads=0 / nr=0 / decimate=1 / interlaced=0 / bluray_compat=0 / constrained_intra=0 / bframes=3 / b_pyramid=2 / b_adapt=2 / b_bias=0 / direct=3 / weightb=1 / open_gop=0 / weightp=2 / keyint=250 / keyint_min=25 / scenecut=40 / intra_refresh=0 / rc_lookahead=50 / rc=crf / mbtree=1 / crf=19.0 / qcomp=0.60 / qpmin=0 / qpmax=69 / qpstep=4 / ip_ratio=1.40 / aq=1:1.00
Язык : English
Default : Да
Forced : Нет

Аудио #1
Идентификатор : 2
Формат : AC-3
Формат/Информация : Audio Coding 3
Расширение режима : CM (complete main)
Параметр Endianness формата : Big
Идентификатор кодека : A_AC3
Продолжительность : 49 м.
Вид битрейта : Постоянный
Битрейт : 192 Кбит/сек
Каналы : 2 канала
Расположение каналов : Front: L R
Частота : 48,0 КГц
Битовая глубина : 16 бит
Метод сжатия : С потерями
Размер потока : 67,7 Мбайт (6%)
Язык : Russian
Default : Да
Forced : Нет

Аудио #2
Идентификатор : 3
Формат : AC-3
Формат/Информация : Audio Coding 3
Расширение режима : CM (complete main)
Параметр Endianness формата : Big
Идентификатор кодека : A_AC3
Продолжительность : 49 м.
Вид битрейта : Постоянный
Битрейт : 448 Кбит/сек
Каналы : 6 каналов
Расположение каналов : Front: L C R, Side: L R, LFE
Частота : 48,0 КГц
Битовая глубина : 16 бит
Метод сжатия : С потерями
Размер потока : 158 Мбайт (13%)
Язык : English
Default : Нет
Forced : Нет

Текст #1
Идентификатор : 4
Формат : UTF-8
Идентификатор кодека : S_TEXT/UTF8
Идентификатор кодека/Информация : UTF-8 Plain Text
Язык : Russian
Default : Да
Forced : Нет

Текст #2
Идентификатор : 5
Формат : UTF-8
Идентификатор кодека : S_TEXT/UTF8
Идентификатор кодека/Информация : UTF-8 Plain Text
Язык : English
Default : Нет
Forced : Нет

за звук большое спасибо miha2154

Как это обычно бывает, в угоду рекламе, на канале вырезали по куску из 1,2,5,6,7 серии - на эти места вставлен любительский перевод Студия Райдо. В 6 серии отсутствует ~ 30 сек видео и оригинальной дорожки - так же как в других раздачах - битый исходник.



Скачать Отец.Браун.Патер.Браун.Father.Brown.(сезон.01).(Йен.Барбер.и.др.).[2013.драма.детектив.HDTVRip].[720p].[MVO.(ТВЦ)]+[Eng].torrent без регистрации
Золото ЗОЛОТАЯ РАЗДАЧА! СКАЧАННОЕ НЕ ЗАСЧИТЫВАЕТСЯ! Золото
Дата: Зарегистрирован   [ Тип: внутренний ] Как тут cкачать?
MAGNET ссылка
MAGNET ссылка


Скачать .torrent

24 KB

Статус: проверено DHT
Скачан: торрент - 127 раз, раздача полностью - 26 раз
Размер: 9,2 GB
Оценка:  - (Голосов: 0)
Поблагодарили: 2
Поделиться ссылкой на эту раздачу с друзьями:
В контактеFacebookОдноклассникиTwitterLivejournalМой МирLiveinternet
 

 
Показать сообщения:    


Вы не можете начинать темы
Вы не можете отвечать на сообщения
Вы не можете редактировать свои сообщения
Вы не можете удалять свои сообщения
Вы не можете голосовать в опросах
Вы не можете прикреплять файлы к сообщениям
Вы можете скачивать файлы