Loading...
Error

Скачать Отец Браун / Патер Браун / Father Brown (сезон 02) (Йен Барбер и др.) [2013, драма, детектив, HDTVRip] [720p] [MVO (ТВЦ)]+[Eng] торрент без регистрации

 
Статистика раздачи
Размер:  8,48 GB   |    Скачан:  158 раз
Сидов:  1  [  0 KB/s  ]  
 
Автор Сообщение

МихаНЕзатор

[] 

Информация о фильме
Название: Отец Браун / Патер Браун
Оригинальное название: Father Brown
Год выхода: 2014
Жанр: детектив, драма
Режиссер: Айэн Барбер, Доминик Киви, Мэтт Картер

В ролях: Марк Вильямс, Хьюго Спир, Kasia Koleczek, Майк Истман, Алекс Прайс, Кейт Осборн, Нэнси Кэролл

О фильме: Продолжение замечательного детектива о расследованиях провинциального священника патера Брауна по произведениям классика английской литературы Гилберта Кита Честертона. Вас ждут прелестнейшие виды английской глубинки середины прошлого века, приятные диалоги и запутаннейшие сюжеты, из которых находчивый патер выходит с неизменным достоинством, благородством и юмором.



Страна: Великобритания
Продолжительность: 10 x ~ 00:49:00
Перевод: Профессиональный (многоголосый закадровый) студия "Back Board Cinema" по заказу ТВЦ

Файл
Кодек: x264
Качество: HDTVRip 720p
Видео: 1280х720 (16:9), 25 fps, ~ 2500 kbps, 0.092 bit/pixel
Звук:
Аудио 1: Русский, AC3, 48 kHz, 2 ch, 192 kbps
Аудио 2: Английский, AC3, 48 kHz, 2 ch, 192 kbps
Субтитры: русские, английские

АНОНСЫ ПОПУЛЯРНЫХ РАЗДАЧ

01. The Ghost in the Machine
02. The Maddest of All
03. The Pride of the Prydes
04. The Shadow of the Scaffold
05. The Mysteries of the Rosary
06. The Daughters of Jerusalem
07. The Three Tools of Death
08. The Prize of Colonel Gerard
09. The Grim Reaper
10. The Laws of Motion

Общее
Уникальный идентификатор : 173936389320248943722469054724744204089 (0x82DAEE187B116C16BDE07EFFD800CF39)
Полное имя : Father Brown (Отец Браун) Сезон 2 2014 HDTVRip 720p MVOfather.brown.2013.s02e06.720p.hdtv.x264.mkv
Формат : Matroska
Версия формата : Version 4 / Version 2
Размер файла : 877 Мбайт
Продолжительность : 43 м.
Общий поток : 2798 Кбит/сек
Дата кодирования : UTC 2014-06-08 09:30:08
Программа кодирования : mkvmerge v6.9.1 ('Blue Panther') 64bit built on Apr 18 2014 18:23:38
Библиотека кодирования : libebml v1.3.0 + libmatroska v1.4.1

Видео
Идентификатор : 1
Формат : AVC
Формат/Информация : Advanced Video Codec
Профиль формата : High@L4.1
Параметр CABAC формата : Да
Параметр ReFrames формата : 5 кадров
Идентификатор кодека : V_MPEG4/ISO/AVC
Продолжительность : 43 м.
Битрейт : 2358 Кбит/сек
Ширина : 1280 пикселей
Высота : 720 пикселей
Соотношение сторон : 16:9
Режим частоты кадров : Постоянный
Частота кадров : 25,000 кадров/сек
Цветовое пространство : YUV
Субдискретизация насыщенности : 4:2:0
Битовая глубина : 8 бит
Тип развёртки : Прогрессивная
Бит/(Пиксели*Кадры) : 0.102
Размер потока : 740 Мбайт (84%)
Заголовок : 2x06 - The Daughters of Jerusalem (Дочери Иерусалима)
Библиотека кодирования : x264 core 140 r2377 1ca7bb9
Настройки программы : cabac=1 / ref=5 / deblock=1:0:0 / analyse=0x3:0x113 / me=umh / subme=8 / psy=1 / psy_rd=1.00:0.00 / mixed_ref=1 / me_range=16 / chroma_me=1 / trellis=1 / 8x8dct=1 / cqm=0 / deadzone=21,11 / fast_pskip=1 / chroma_qp_offset=-2 / threads=12 / lookahead_threads=2 / sliced_threads=0 / nr=0 / decimate=1 / interlaced=0 / bluray_compat=0 / constrained_intra=0 / bframes=3 / b_pyramid=2 / b_adapt=2 / b_bias=0 / direct=3 / weightb=1 / open_gop=0 / weightp=2 / keyint=250 / keyint_min=25 / scenecut=40 / intra_refresh=0 / rc_lookahead=50 / rc=crf / mbtree=1 / crf=18.0 / qcomp=0.60 / qpmin=0 / qpmax=69 / qpstep=4 / ip_ratio=1.40 / aq=1:1.00
Язык : English
Default : Да
Forced : Нет
Коэффициенты матрицы : BT.709

Аудио #1
Идентификатор : 2
Формат : AC-3
Формат/Информация : Audio Coding 3
Расширение режима : CM (complete main)
Параметр Endianness формата : Big
Идентификатор кодека : A_AC3
Продолжительность : 43 м.
Вид битрейта : Постоянный
Битрейт : 192 Кбит/сек
Каналы : 2 канала
Расположение каналов : Front: L R
Частота : 48,0 КГц
Битовая глубина : 16 бит
Метод сжатия : С потерями
Размер потока : 60,2 Мбайт (7%)
Язык : Russian
Default : Да
Forced : Нет

Аудио #2
Идентификатор : 3
Формат : AC-3
Формат/Информация : Audio Coding 3
Расширение режима : CM (complete main)
Параметр Endianness формата : Big
Идентификатор кодека : A_AC3
Продолжительность : 43 м.
Вид битрейта : Постоянный
Битрейт : 192 Кбит/сек
Каналы : 2 канала
Расположение каналов : Front: L R
Частота : 48,0 КГц
Битовая глубина : 16 бит
Метод сжатия : С потерями
Размер потока : 60,2 Мбайт (7%)
Язык : English
Default : Нет
Forced : Нет

Текст #1
Идентификатор : 4
Формат : UTF-8
Идентификатор кодека : S_TEXT/UTF8
Идентификатор кодека/Информация : UTF-8 Plain Text
Язык : Russian
Default : Нет
Forced : Нет

Текст #2
Идентификатор : 5
Формат : UTF-8
Идентификатор кодека : S_TEXT/UTF8
Идентификатор кодека/Информация : UTF-8 Plain Text
Язык : English
Default : Нет
Forced : Нет

за звук большое спасибо miha2154



Скачать Отец.Браун.Патер.Браун.Father.Brown.(сезон.02).(Йен.Барбер.и.др.).[2013.драма.детектив.HDTVRip].[720p].[MVO.(ТВЦ)]+[Eng].torrent без регистрации
Золото ЗОЛОТАЯ РАЗДАЧА! СКАЧАННОЕ НЕ ЗАСЧИТЫВАЕТСЯ! Золото
Дата: Зарегистрирован   [ Тип: внутренний ] Как тут cкачать?
MAGNET ссылка
MAGNET ссылка


Скачать .torrent

23 KB

Статус: проверено DHT
Скачан: торрент - 158 раз, раздача полностью - 24 раз
Размер: 8,48 GB
Оценка:  - (Голосов: 0)
Поблагодарили: 1
Поделиться ссылкой на эту раздачу с друзьями:
В контактеFacebookОдноклассникиTwitterLivejournalМой МирLiveinternet
 

 
Показать сообщения:    


Вы не можете начинать темы
Вы не можете отвечать на сообщения
Вы не можете редактировать свои сообщения
Вы не можете удалять свои сообщения
Вы не можете голосовать в опросах
Вы не можете прикреплять файлы к сообщениям
Вы можете скачивать файлы